找回密码

蓝光电影网

查看: 15|回复: 0

[喜剧] 八大寇 The.Counterfeiters.of.Paris.1961.1080p.BluRay.x264-USURY 11.72GB

[复制链接]
蓝光币
511
发表于 2020-12-1 10:44:53 | 显示全部楼层 |阅读模式


◎译  名 八大寇/The Counterfeiters of Paris
◎片  名 Le cave se rebiffe
◎年  代 1961
◎产  地 法国,意大利
◎类  别 笑剧 / 犯罪
◎语  言 法语
◎上映日期 1961-12-22
◎IMDb评分  7.1/10 from 1063 users
◎IMDb链接  https://www.imdb.com/title/tt0054734/
◎豆瓣评分 /10 from 0 users
◎豆瓣链接 https://movie.douban.com/subject/2127503/
◎片  长 98 分钟
◎导  演 吉尔·格朗吉 Gilles Grangier
◎编  剧 米歇尔·奥迪亚 Michel Audiard / 阿尔贝·西莫南 Albert Simonin / 吉尔·格朗吉 Gilles Grangier
◎主  演 马克斯·多里亚 Max Doria
       Albert Dinan
       René Hell
       加布里埃尔·戈班 Gabriel Gobin
       Heinrich Gretler
       吉内特·勒克莱尔 Ginette Leclerc
       雅克·马兰 Jacques Marin
       阿伯特·米歇尔 Albert Michel
       弗兰克·维拉德 Frank Villard
       Claude Achard
       弗朗索瓦丝·罗赛 Fran?oise Rosay
       埃莱娜·迪厄多内 Hélène Dieudonné
       让·迦本 Jean Gabin
       玛蒂妮·卡洛 Martine Carol
       Antoine Balpêtré
       夏尔·布约 Charles Bouillaud
       莫里斯·比罗 Maurice Biraud
       贝尔纳·布里埃 Bernard Blier
       皮埃尔·科莱 Pierre Collet
       马塞尔·沙尔韦 Marcel Charvey
       罗贝尔·达尔邦 Robert Dalban
       保罗·费弗尔 Paul Faivre
       格雷德·布尔 Gérard Buhr
◎标  签 法语 | 被轻忽的电影 | 犯罪 | 法国电影 | 法国 | 没有中文 | 笑剧 | JeanGabin
◎简  介


  "Le Dabe" retired many years ago and now he lives in the Tropics where he owns stables and horses. He is a very rich man. He was the king of all money counterfeiters. He is contacted from Paris to organize a new job. He says no. But when he finds out the the currency that should be counterfeited is the Holland Forint, he accepts immediately. He retired after having counterfeited 100 Forint notes just before the Queen Wilhelmina retired them from circulation. He flies to Paris. But the gang is not to be trusted, at least not all of them.
  1. Video
  2. ID                                       : 1
  3. Format                                   : AVC
  4. Format/Info                              : Advanced Video Codec
  5. Format profile                           : [email protected]
  6. Format settings                          : CABAC / 4 Ref Frames
  7. Format settings, CABAC                   : Yes
  8. Format settings, Reference frames        : 4 frames
  9. Codec ID                                 : V_MPEG4/ISO/AVC
  10. Duration                                 : 1 h 38 min
  11. Bit rate                                 : 16.9 Mb/s
  12. Width                                    : 1 798 pixels
  13. Height                                   : 1 080 pixels
  14. Display aspect ratio                     : 5:3
  15. Frame rate mode                          : Constant
  16. Frame rate                               : 24.000 FPS
  17. Color space                              : YUV
  18. Chroma subsampling                       : 4:2:0
  19. Bit depth                                : 8 bits
  20. Scan type                                : Progressive
  21. Bits/(Pixel*Frame)                       : 0.362
  22. Stream size                              : 11.6 GiB (99%)
  23. Writing library                          : x264 core 161 r3018 db0d417
  24. Encoding settings                        : cabac=1 / ref=4 / deblock=1:-3:-3 / analyse=0x3:0x133 / me=umh / subme=10 / psy=1 / psy_rd=1.00:0.15 / mixed_ref=1 / me_range=24 / chroma_me=1 / trellis=2 / 8x8dct=1 / cqm=0 / deadzone=21,11 / fast_pskip=1 / chroma_qp_offset=-3 / threads=18 / lookahead_threads=3 / sliced_threads=0 / nr=0 / decimate=1 / interlaced=0 / bluray_compat=0 / constrained_intra=0 / bframes=8 / b_pyramid=2 / b_adapt=2 / b_bias=0 / direct=3 / weightb=1 / open_gop=0 / weightp=2 / keyint=250 / keyint_min=24 / scenecut=40 / intra_refresh=0 / rc_lookahead=60 / rc=crf / mbtree=1 / crf=19.5 / qcomp=0.60 / qpmin=0 / qpmax=69 / qpstep=4 / ip_ratio=1.40 / aq=3:0.50
  25. Language                                 : English
  26. Default                                  : Yes
  27. Forced                                   : No
  28. Color range                              : Limited
  29. Matrix coefficients                      : BT.709

  30. Audio
  31. ID                                       : 2
  32. Format                                   : FLAC
  33. Format/Info                              : Free Lossless Audio Codec
  34. Codec ID                                 : A_FLAC
  35. Duration                                 : 1 h 38 min
  36. Bit rate mode                            : Variable
  37. Bit rate                                 : 214 kb/s
  38. Channel(s)                               : 2 channels
  39. Channel layout                           : L R
  40. Sampling rate                            : 48.0 kHz
  41. Frame rate                               : 11.719 FPS (4096 SPF)
  42. Bit depth                                : 16 bits
  43. Compression mode                         : Lossless
  44. Stream size                              : 150 MiB (1%)
  45. Writing library                          : libFLAC 1.2.1 (UTC 2007-09-17)
  46. Language                                 : French
  47. Default                                  : Yes
  48. Forced                                   : No

  49. Text #1
  50. ID                                       : 3
  51. Format                                   : UTF-8
  52. Codec ID                                 : S_TEXT/UTF8
  53. Codec ID/Info                            : UTF-8 Plain Text
  54. Duration                                 : 1 h 37 min
  55. Bit rate                                 : 65 b/s
  56. Count of elements                        : 1342
  57. Stream size                              : 46.7 KiB (0%)
  58. Title                                    : English
  59. Language                                 : English
  60. Default                                  : Yes
  61. Forced                                   : Yes

  62. Text #2
  63. ID                                       : 4
  64. Format                                   : PGS
  65. Muxing mode                              : zlib
  66. Codec ID                                 : S_HDMV/PGS
  67. Codec ID/Info                            : Picture based subtitle format used on BDs/HD-DVDs
  68. Duration                                 : 1 h 37 min
  69. Bit rate                                 : 8 975 b/s
  70. Count of elements                        : 2684
  71. Stream size                              : 6.23 MiB (0%)
  72. Title                                    : English
  73. Language                                 : English
  74. Default                                  : No
  75. Forced                                   : No

  76. Text #3
  77. ID                                       : 5
  78. Format                                   : UTF-8
  79. Codec ID                                 : S_TEXT/UTF8
  80. Codec ID/Info                            : UTF-8 Plain Text
  81. Duration                                 : 1 h 37 min
  82. Bit rate                                 : 72 b/s
  83. Count of elements                        : 1394
  84. Stream size                              : 52.2 KiB (0%)
  85. Title                                    : French SDH
  86. Language                                 : French
  87. Default                                  : No
  88. Forced                                   : No

  89. Text #4
  90. ID                                       : 6
  91. Format                                   : PGS
  92. Muxing mode                              : zlib
  93. Codec ID                                 : S_HDMV/PGS
  94. Codec ID/Info                            : Picture based subtitle format used on BDs/HD-DVDs
  95. Duration                                 : 1 h 37 min
  96. Bit rate                                 : 9 072 b/s
  97. Count of elements                        : 2788
  98. Stream size                              : 6.34 MiB (0%)
  99. Title                                    : French SDH
  100. Language                                 : French
  101. Default                                  : No
  102. Forced                                   : No

  103. Menu
  104. 00:00:00.000                             : en:00:00:00.000
  105. 00:06:06.083                             : en:00:06:06.083
  106. 00:15:50.083                             : en:00:15:50.083
  107. 00:26:50.333                             : en:00:26:50.333
  108. 00:31:35.542                             : en:00:31:35.542
  109. 00:39:52.292                             : en:00:39:52.292
  110. 00:46:58.167                             : en:00:46:58.167
  111. 00:56:16.250                             : en:00:56:16.250
  112. 01:05:43.000                             : en:01:05:43.000
  113. 01:11:09.958                             : en:01:11:09.958
  114. 01:20:03.250                             : en:01:20:03.250
  115. 01:30:35.250                             : en:01:30:35.250
复制代码




                                       
                                       

                                       
                                       
                                       




回复

使用道具 举报

懒得打字嘛,点击右侧快捷回复 【右侧内容,后台自定义】
您需要登录后才可以回帖 登录 | 立即加入

本版积分规则

Archiver|小黑屋| 蓝光电影网 |网站地图

Copyright © 2021 Comsenz Inc. Powered by 蓝光电影网

蓝光电影网

本站内容由用户自主分享和转载自互联网,转载目的在于传递更多信息,并不代表本网赞同其观点和对其真实性负责。

如有侵权、违反国家法律政策行为,请联系我们,我们会第一时间及时清除和处理!

举报反馈邮箱:[email protected]

快速回复 返回顶部 返回列表