找回密码

蓝光电影网

查看: 21|回复: 0

[剧情] 野风 Reap.the.Wild.Wind.1942.1080p.BluRay.REMUX.AVC.DTS-HD.MA.2.0-FGT 31.49GB

[复制链接]
蓝光币
515
发表于 2019-9-18 00:50:30 | 显示全部楼层 |阅读模式


◎译  名 野风
◎片  名 Reap the Wild Wind
◎年  代 1942
◎产  地 美国
◎类  别 剧情 / 行动 / 冒险
◎语  言 英语
◎上映日期 1942-03-18
◎IMDb评分  6.8/10 from 2660 users
◎IMDb链接  http://www.imdb.com/title/tt0035244
◎豆瓣评分 0/10 from 0 users
◎豆瓣链接 https://movie.douban.com/subject/1300239/
◎片  长 123 分钟
◎导  演 Cecil B. DeMille
◎编  剧 Alan Le May / Charles Bennett
◎主  演 Ray Milland
       John Wayne
       Paulette Goddard

◎标  签 美国 | 塞西尔·B·戴米尔 | 剧情 | 美国电影 | RayMilland | 约翰·韦恩 | JohnWayne | 1942
◎简  介  
  暂无相关剧情先容
◎获奖情况  
  第15届奥斯卡金像奖(1943)
  彩色片最好摄影(提名) Victor Milner / William V. Skall
  最好殊效 William L. Pereira / 高登·詹宁斯 / 路易斯·梅塞科普 / 法乔特·埃多特
  彩色片最好艺术指导和室内布景(提名) 汉斯·德雷尔 / 罗兰德·安德森 / George Sawley
  1. Video
  2. ID                                       : 1
  3. Format                                   : AVC
  4. Format/Info                              : Advanced Video Codec
  5. Format profile                           : [email protected]
  6. Format settings                          : CABAC / 4 Ref Frames
  7. Format settings, CABAC                   : Yes
  8. Format settings, Reference frames        : 4 frames
  9. Codec ID                                 : V_MPEG4/ISO/AVC
  10. Duration                                 : 2 h 3 min
  11. Bit rate mode                            : Variable
  12. Bit rate                                 : 34.8 Mb/s
  13. Maximum bit rate                         : 38.0 Mb/s
  14. Width                                    : 1 920 pixels
  15. Height                                   : 1 080 pixels
  16. Display aspect ratio                     : 16:9
  17. Frame rate mode                          : Constant
  18. Frame rate                               : 23.976 (24000/1001) FPS
  19. Color space                              : YUV
  20. Chroma subsampling                       : 4:2:0
  21. Bit depth                                : 8 bits
  22. Scan type                                : Progressive
  23. Bits/(Pixel*Frame)                       : 0.700
  24. Stream size                              : 30.1 GiB (96%)
  25. Title                                    : Reap.the.Wild.Wind.1942.1080p.BluRay.REMUX.AVC.DTS-HD.MA.2.0-FGT
  26. Language                                 : English
  27. Default                                  : No
  28. Forced                                   : No
  29. Audio
  30. ID                                       : 2
  31. Format                                   : DTS XLL
  32. Format/Info                              : Digital Theater Systems
  33. Commercial name                          : DTS-HD Master Audio
  34. Codec ID                                 : A_DTS
  35. Duration                                 : 2 h 3 min
  36. Bit rate mode                            : Variable
  37. Bit rate                                 : 1 557 kb/s
  38. Channel(s)                               : 2 channels
  39. Channel layout                           : L R
  40. Sampling rate                            : 48.0 kHz
  41. Frame rate                               : 93.750 FPS (512 SPF)
  42. Bit depth                                : 16 bits
  43. Compression mode                         : Lossless
  44. Stream size                              : 1.35 GiB (4%)
  45. Title                                    : Reap.the.Wild.Wind.1942.1080p.BluRay.REMUX.AVC.DTS-HD.MA.2.0-FGT
  46. Language                                 : English
  47. Default                                  : Yes
  48. Forced                                   : No
  49. Text
  50. ID                                       : 3
  51. Format                                   : PGS
  52. Muxing mode                              : zlib
  53. Codec ID                                 : S_HDMV/PGS
  54. Codec ID/Info                            : Picture based subtitle format used on BDs/HD-DVDs
  55. Duration                                 : 2 h 0 min
  56. Bit rate                                 : 38.9 kb/s
  57. Count of elements                        : 2504
  58. Stream size                              : 33.6 MiB (0%)
  59. Title                                    : English-PGS
  60. Language                                 : English
  61. Default                                  : Yes
  62. Forced                                   : No
  63. Menu
  64. 00:00:00.000                             : en:Chapter 00
  65. 00:07:44.255                             : en:Chapter 01
  66. 00:21:13.230                             : en:Chapter 02
  67. 00:38:38.607                             : en:Chapter 03
  68. 00:58:16.743                             : en:Chapter 04
  69. 01:16:04.601                             : en:Chapter 05
  70. 01:30:08.653                             : en:Chapter 06
  71. 01:46:49.653                             : en:Chapter 07
复制代码






                                       
                                       

                                       
                                       
                                       




回复

使用道具 举报

懒得打字嘛,点击右侧快捷回复 【右侧内容,后台自定义】
您需要登录后才可以回帖 登录 | 立即加入

本版积分规则

Archiver|小黑屋| 蓝光电影网 |网站地图

Copyright © 2021 Comsenz Inc. Powered by 蓝光电影网

蓝光电影网

本站内容由用户自主分享和转载自互联网,转载目的在于传递更多信息,并不代表本网赞同其观点和对其真实性负责。

如有侵权、违反国家法律政策行为,请联系我们,我们会第一时间及时清除和处理!

举报反馈邮箱:[email protected]

快速回复 返回顶部 返回列表