找回密码

蓝光电影网

查看: 10|回复: 0

[动作] 钢铁侠2/钢铁人2 Iron.Man.2.2010.REMASTERED.1080p.BluRay.x264.DTS-SWTYBLZ 16.35GB

[复制链接]
蓝光币
515
发表于 2019-8-10 04:53:52 | 显示全部楼层 |阅读模式
[img]https://img1.doubanio.com/view/photo/l_ratio_poster/public/p451885601.jpg[img]
◎译  名 钢铁侠2 / 钢铁人2(台) / 铁人2 / 铁甲奇侠2(港)
◎片  名 Iron Man 2
◎年  代 2010
◎产  地 美国
◎类  别 行动 / 科幻 / 冒险
◎语  言 英语 / 法语 / 俄语
◎上映日期 2010-05-07(中国大陆/美国)
◎IMDb评分  7.0/10 from 665986 users
◎IMDb链接  http://www.imdb.com/title/tt1228705
◎豆瓣评分 7.6/10 from 308044 users
◎豆瓣链接 https://movie.douban.com/subject/3066739/
◎片  长 124 分钟
◎导  演 乔恩·费儒 Jon Favreau
◎编  剧 贾斯汀·塞洛克斯 Justin Theroux
◎主  演 小罗伯特·唐尼 Robert Downey Jr.
       格温妮斯·帕特洛 Gwyneth Paltrow
       米基·洛克 Mickey Rourke
       斯嘉丽·约翰逊 Scarlett Johansson
       山姆·洛克威尔 Sam Rockwell
       唐·钱德尔 Don Cheadle
       塞缪尔·杰克逊 Samuel L. Jackson
       乔恩·费儒 Jon Favreau
       保罗·贝坦尼 Paul Bettany
       克拉克·格雷格 Clark Gregg
       凯特·玛拉 Kate Mara
       约翰·斯拉特里 John Slattery

◎标  签 科幻 | 美国 | 钢铁侠 | 行动 | 漫威 | 漫画改编 | 美国电影 | RobertDowneyJr
◎简  介  
  钢铁侠托尼·斯塔克(小罗伯特·唐尼 Robert Downey Jr. 饰)在国会听证上拒断交出最新技术。与此同时,他发现胸口的微型电弧反应炉正敏捷形成血液的钯金属中毒。沮丧的托尼将斯塔克公司的总裁职务交予了秘书波兹(格温妮丝·帕特罗 Gwyneth Paltrow 饰),由她全权负责正在停止的纽约斯塔克展览会。波兹从法令部分调来助理娜塔莉(斯美人·约翰逊 Scarlett Johansson 饰)照顾托尼。托尼在媒体前的高调亮相引发了其父昔时同事的儿子,伊凡(米基·洛克 Mickey Rourke 饰)的不满。为了实施报复,他子承父业,研制出了一套可与钢铁战衣相媲美的装备。伊凡的技术引发了托尼的合作对手,军械商贾斯丁·汉默(山姆·洛克威尔 Sam Rockwell 饰)的留意,他想法将伊凡劫持出狱,奥秘研讨取代钢铁侠。正当托尼苦于钯金属中毒酿成的失意之时,他发现娜塔莉本来身负奥秘使命,而自己的任性,也形成了与好友,空军上校罗尼(唐·钱德尔 Don Cheadle 饰)的交恶,眼看大势就要失控……
◎获奖情况  
  第83届奥斯卡金像奖(2011)
  最好视觉结果(提名) 盖德·赖特 / 丹尼尔·萨迪克 / 加内克·西尔斯 / Ben Snow
  第20届MTV电影奖(2011)
  MTV电影奖 最好反派(提名) 米基·洛克
  第12届美国青少年挑选奖(2010)
  最好科幻电影(提名)
  最好科幻电影男演员(提名) 小罗伯特·唐尼
  最好科幻电影女演员(提名) 斯嘉丽·约翰逊 / 格温妮斯·帕特洛
  最好电影舞蹈(提名) 小罗伯特·唐尼
  最好电影反派(提名) 米基·洛克
  最好电影打架(提名) 小罗伯特·唐尼 / 唐·钱德尔
  1. Video
  2. ID                                       : 1
  3. Format                                   : AVC
  4. Format/Info                              : Advanced Video Codec
  5. Format profile                           : [email protected]
  6. Format settings                          : CABAC / 5 Ref Frames
  7. Format settings, CABAC                   : Yes
  8. Format settings, Reference frames        : 5 frames
  9. Codec ID                                 : V_MPEG4/ISO/AVC
  10. Duration                                 : 2 h 4 min
  11. Bit rate                                 : 17.3 Mb/s
  12. Width                                    : 1 920 pixels
  13. Height                                   : 816 pixels
  14. Display aspect ratio                     : 2.35:1
  15. Frame rate mode                          : Constant
  16. Frame rate                               : 23.976 (24000/1001) FPS
  17. Color space                              : YUV
  18. Chroma subsampling                       : 4:2:0
  19. Bit depth                                : 8 bits
  20. Scan type                                : Progressive
  21. Bits/(Pixel*Frame)                       : 0.460
  22. Stream size                              : 15.0 GiB (92%)
  23. Title                                    : Iron.Man.2.2010.REMASTERED.1080p.BluRay.x264.DTS-SWTYBLZ
  24. Writing library                          : x264 core 157 r2935 545de2f
  25. Encoding settings                        : cabac=1 / ref=5 / deblock=1:-1:-1 / analyse=0x3:0x133 / me=umh / subme=10 / psy=1 / psy_rd=1.00:0.15 / mixed_ref=1 / me_range=48 / chroma_me=1 / trellis=2 / 8x8dct=1 / cqm=0 / deadzone=21,11 / fast_pskip=1 / chroma_qp_offset=-3 / threads=25 / lookahead_threads=4 / sliced_threads=0 / nr=0 / decimate=0 / interlaced=0 / bluray_compat=0 / constrained_intra=0 / bframes=8 / b_pyramid=2 / b_adapt=2 / b_bias=0 / direct=3 / weightb=1 / open_gop=0 / weightp=2 / keyint=250 / keyint_min=23 / scenecut=40 / intra_refresh=0 / rc_lookahead=60 / rc=crf / mbtree=1 / crf=13.0 / qcomp=0.60 / qpmin=0 / qpmax=69 / qpstep=4 / ip_ratio=1.40 / aq=1:1.00
  26. Language                                 : English
  27. Default                                  : Yes
  28. Forced                                   : No
  29. Audio
  30. ID                                       : 2
  31. Format                                   : DTS
  32. Format/Info                              : Digital Theater Systems
  33. Codec ID                                 : A_DTS
  34. Duration                                 : 2 h 4 min
  35. Bit rate mode                            : Constant
  36. Bit rate                                 : 1 509 kb/s
  37. Channel(s)                               : 6 channels
  38. Channel layout                           : C L R Ls Rs LFE
  39. Sampling rate                            : 48.0 kHz
  40. Frame rate                               : 93.750 FPS (512 SPF)
  41. Bit depth                                : 24 bits
  42. Compression mode                         : Lossy
  43. Stream size                              : 1.31 GiB (8%)
  44. Title                                    : Iron.Man.2.2010.REMASTERED.1080p.BluRay.x264.DTS-SWTYBLZ
  45. Language                                 : English
  46. Default                                  : Yes
  47. Forced                                   : No
  48. Text
  49. ID                                       : 3
  50. Format                                   : UTF-8
  51. Codec ID                                 : S_TEXT/UTF8
  52. Codec ID/Info                            : UTF-8 Plain Text
  53. Duration                                 : 2 h 4 min
  54. Bit rate                                 : 65 b/s
  55. Count of elements                        : 1523
  56. Stream size                              : 59.2 KiB (0%)
  57. Title                                    : English-SRT
  58. Language                                 : English
  59. Default                                  : Yes
  60. Forced                                   : No
  61. Menu
  62. 00:00:00.000                             : en:Chapter 01
  63. 00:05:01.801                             : en:Chapter 02
  64. 00:11:05.081                             : en:Chapter 03
  65. 00:17:57.451                             : en:Chapter 04
  66. 00:25:50.507                             : en:Chapter 05
  67. 00:30:24.281                             : en:Chapter 06
  68. 00:37:30.498                             : en:Chapter 07
  69. 00:43:57.134                             : en:Chapter 08
  70. 00:51:36.844                             : en:Chapter 09
  71. 01:00:08.021                             : en:Chapter 10
  72. 01:06:59.015                             : en:Chapter 11
  73. 01:15:58.262                             : en:Chapter 12
  74. 01:21:10.783                             : en:Chapter 13
  75. 01:30:31.051                             : en:Chapter 14
  76. 01:38:46.838                             : en:Chapter 15
  77. 01:45:39.291                             : en:Chapter 16
  78. 01:54:14.848                             : en:Chapter 17
复制代码






                                       
                                       

                                       
                                       
                                       




回复

使用道具 举报

懒得打字嘛,点击右侧快捷回复 【右侧内容,后台自定义】
您需要登录后才可以回帖 登录 | 立即加入

本版积分规则

Archiver|小黑屋| 蓝光电影网 |网站地图

Copyright © 2021 Comsenz Inc. Powered by 蓝光电影网

蓝光电影网

本站内容由用户自主分享和转载自互联网,转载目的在于传递更多信息,并不代表本网赞同其观点和对其真实性负责。

如有侵权、违反国家法律政策行为,请联系我们,我们会第一时间及时清除和处理!

举报反馈邮箱:[email protected]

快速回复 返回顶部 返回列表