找回密码

蓝光电影网

查看: 50|回复: 0

[动作] 釜山行2:半岛 Train.to.Busan.2.Peninsula.2020.KOREAN.1080p.BluRay.REMUX.AVC.DTS-HD.MA.TrueHD.7.1.Atmos-FGT 34.60GB

[复制链接]
蓝光币
519
发表于 2020-11-19 19:19:53 | 显示全部楼层 |阅读模式


◎译  名 釜山行2:半岛/Peninsula/Train to Busan 2/半岛/尸杀半岛(港)/尸速列车:传染半岛(台)/釜山行2
◎片  名 ???2-??
◎年  代 2020
◎产  地 韩国
◎类  别 行动 / 惊悚
◎语  言 韩语,英语,粤语
◎上映日期 2020-07-15(韩国)
◎IMDb评分  5.4/10 from 15210 users
◎IMDb链接  https://www.imdb.com/title/tt8850222/
◎豆瓣评分 5.1/10 from 85487 users
◎豆瓣链接 https://movie.douban.com/subject/30299515/
◎片  长 115分钟
◎导  演 延尚昊 Sang-ho Yeon
◎编  剧 延尚昊 Sang-ho Yeon
◎主  演 姜栋元 Dong-won Kang
       李贞贤 Jung-hyun Lee
       权海骁 Hae-hyo Kwon
       李来 Re Lee
       金敏载 Kim Min-jae
       具教焕 Gu Kyohwan
       金度允 Do-yoon Kim
       李艺媛 Ye-won Lee
       文宇振 Woo-jin Moon
       金丹菲 Dan-bi Kim
◎标  签 丧尸 | 灾难 | 韩国 | 韩国电影 | 可骇 | 人性 | 2020 | 电影
◎简  介


  上集列车驶往釜山后,丧尸病毒瞬间全国爆发,4年后的韩国尸毒遍野,被全球孤立,沦为死城。所馀无几的生还者踏上最初一艘难民船,分开被众人抛弃的朝鲜半岛。退伍甲士正锡(姜栋元 饰)和家人有幸登上难民船,但一上船便发现丧尸潜伏,幸得香港收留,这批韩国人材得以登陆,以「半岛难民」成分在香港重新生活。但正锡受不住金钱引诱,加入了一个返国窃取巨额美金的行动。他和队友重返韩国,居然发现仍有一班未受尸毒传染的人在挣扎求存,正锡决议带这班倖存者逃生,他们最初能否成功逃出尸杀半岛?
◎获奖情况
  第73届戛纳电影节 ?(2020)
  入选过戛纳导演作品(提名)
  
  第41届韩国电影青龙奖 ?(2020)
  最好导演(提名) 延尚昊
  最好女配角(提名) 李来
  最好美术(提名)
  最好照明(提名)
  技术奖(提名)
  1. Video
  2. ID                                       : 1
  3. ID in the original source medium         : 4113 (0x1011)
  4. Format                                   : AVC
  5. Format/Info                              : Advanced Video Codec
  6. Format profile                           : [email protected]
  7. Format settings                          : CABAC / 4 Ref Frames
  8. Format settings, CABAC                   : Yes
  9. Format settings, Reference frames        : 4 frames
  10. Codec ID                                 : V_MPEG4/ISO/AVC
  11. Duration                                 : 1 h 55 min
  12. Bit rate mode                            : Variable
  13. Bit rate                                 : 30.3 Mb/s
  14. Maximum bit rate                         : 32.0 Mb/s
  15. Width                                    : 1 920 pixels
  16. Height                                   : 1 080 pixels
  17. Display aspect ratio                     : 16:9
  18. Frame rate mode                          : Constant
  19. Frame rate                               : 24.000 FPS
  20. Color space                              : YUV
  21. Chroma subsampling                       : 4:2:0
  22. Bit depth                                : 8 bits
  23. Scan type                                : Progressive
  24. Bits/(Pixel*Frame)                       : 0.608
  25. Stream size                              : 24.5 GiB (71%)
  26. Title                                    : Train.to.Busan.2.Peninsula.2020.KOREAN.1080p.BluRay.REMUX.AVC.DTS-HD.MA.TrueHD.7.1.Atmos-FGT
  27. Language                                 : English
  28. Default                                  : No
  29. Forced                                   : No
  30. Original source medium                   : Blu-ray
  31. Audio #1
  32. ID                                       : 2
  33. ID in the original source medium         : 4352 (0x1100)
  34. Format                                   : MLP FBA 16-ch
  35. Format/Info                              : Meridian Lossless Packing FBA with 16-channel presentation
  36. Commercial name                          : Dolby TrueHD with Dolby Atmos
  37. Codec ID                                 : A_TRUEHD
  38. Duration                                 : 1 h 55 min
  39. Bit rate mode                            : Variable
  40. Bit rate                                 : 4 449 kb/s
  41. Maximum bit rate                         : 7 755 kb/s
  42. Channel(s)                               : 8 channels
  43. Channel layout                           : L R C LFE Ls Rs Lb Rb
  44. Sampling rate                            : 48.0 kHz
  45. Frame rate                               : 1 200.000 FPS (40 SPF)
  46. Compression mode                         : Lossless
  47. Stream size                              : 3.60 GiB (10%)
  48. Title                                    : Train.to.Busan.2.Peninsula.2020.KOREAN.1080p.BluRay.REMUX.AVC.DTS-HD.MA.TrueHD.7.1.Atmos-FGT
  49. Language                                 : Korean
  50. Default                                  : Yes
  51. Forced                                   : No
  52. Original source medium                   : Blu-ray
  53. Number of dynamic objects                : 11
  54. Bed channel count                        : 1 channel
  55. Bed channel configuration                : LFE
  56. Audio #2
  57. ID                                       : 3
  58. Format                                   : DTS XLL
  59. Format/Info                              : Digital Theater Systems
  60. Commercial name                          : DTS-HD Master Audio
  61. Codec ID                                 : A_DTS
  62. Duration                                 : 1 h 55 min
  63. Bit rate mode                            : Variable
  64. Bit rate                                 : 4 122 kb/s
  65. Channel(s)                               : 8 channels
  66. Channel layout                           : C L R LFE Lb Rb Lss Rss
  67. Sampling rate                            : 48.0 kHz
  68. Frame rate                               : 93.750 FPS (512 SPF)
  69. Bit depth                                : 24 bits
  70. Compression mode                         : Lossless
  71. Stream size                              : 3.34 GiB (10%)
  72. Title                                    : Train.to.Busan.2.Peninsula.2020.KOREAN.1080p.BluRay.REMUX.AVC.DTS-HD.MA.TrueHD.7.1.Atmos-FGT
  73. Language                                 : Korean
  74. Default                                  : No
  75. Forced                                   : No
  76. Audio #3
  77. ID                                       : 4
  78. ID in the original source medium         : 4352 (0x1100)
  79. Format                                   : AC-3
  80. Format/Info                              : Audio Coding 3
  81. Commercial name                          : Dolby Digital
  82. Codec ID                                 : A_AC3
  83. Duration                                 : 1 h 55 min
  84. Bit rate mode                            : Constant
  85. Bit rate                                 : 640 kb/s
  86. Channel(s)                               : 6 channels
  87. Channel layout                           : L R C LFE Ls Rs
  88. Sampling rate                            : 48.0 kHz
  89. Frame rate                               : 31.250 FPS (1536 SPF)
  90. Compression mode                         : Lossy
  91. Stream size                              : 531 MiB (1%)
  92. Title                                    : Train.to.Busan.2.Peninsula.2020.KOREAN.1080p.BluRay.REMUX.AVC.DTS-HD.MA.TrueHD.7.1.Atmos-FGT
  93. Language                                 : Korean
  94. Service kind                             : Complete Main
  95. Default                                  : No
  96. Forced                                   : No
  97. Original source medium                   : Blu-ray
  98. Audio #4
  99. ID                                       : 5
  100. ID in the original source medium         : 4353 (0x1101)
  101. Format                                   : AC-3
  102. Format/Info                              : Audio Coding 3
  103. Commercial name                          : Dolby Digital
  104. Codec ID                                 : A_AC3
  105. Duration                                 : 1 h 55 min
  106. Bit rate mode                            : Constant
  107. Bit rate                                 : 384 kb/s
  108. Channel(s)                               : 2 channels
  109. Channel layout                           : L R
  110. Sampling rate                            : 48.0 kHz
  111. Frame rate                               : 31.250 FPS (1536 SPF)
  112. Compression mode                         : Lossy
  113. Stream size                              : 318 MiB (1%)
  114. Title                                    : Train.to.Busan.2.Peninsula.2020.KOREAN.1080p.BluRay.REMUX.AVC.DTS-HD.MA.TrueHD.7.1.Atmos-FGT
  115. Language                                 : Korean
  116. Service kind                             : Complete Main
  117. Default                                  : No
  118. Forced                                   : No
  119. Original source medium                   : Blu-ray
  120. Audio #5
  121. ID                                       : 6
  122. ID in the original source medium         : 4354 (0x1102)
  123. Format                                   : DTS XLL
  124. Format/Info                              : Digital Theater Systems
  125. Commercial name                          : DTS-HD Master Audio
  126. Codec ID                                 : A_DTS
  127. Duration                                 : 1 h 55 min
  128. Bit rate mode                            : Variable
  129. Bit rate                                 : 2 408 kb/s
  130. Channel(s)                               : 6 channels
  131. Channel layout                           : C L R Ls Rs LFE
  132. Sampling rate                            : 48.0 kHz
  133. Frame rate                               : 93.750 FPS (512 SPF)
  134. Bit depth                                : 16 bits
  135. Compression mode                         : Lossless
  136. Stream size                              : 1.95 GiB (6%)
  137. Title                                    : Train.to.Busan.2.Peninsula.2020.KOREAN.1080p.BluRay.REMUX.AVC.DTS-HD.MA.TrueHD.7.1.Atmos-FGT
  138. Language                                 : English
  139. Default                                  : No
  140. Forced                                   : No
  141. Original source medium                   : Blu-ray
  142. Audio #6
  143. ID                                       : 7
  144. ID in the original source medium         : 4355 (0x1103)
  145. Format                                   : AC-3
  146. Format/Info                              : Audio Coding 3
  147. Commercial name                          : Dolby Digital
  148. Codec ID                                 : A_AC3
  149. Duration                                 : 1 h 55 min
  150. Bit rate mode                            : Constant
  151. Bit rate                                 : 384 kb/s
  152. Channel(s)                               : 2 channels
  153. Channel layout                           : L R
  154. Sampling rate                            : 48.0 kHz
  155. Frame rate                               : 31.250 FPS (1536 SPF)
  156. Compression mode                         : Lossy
  157. Stream size                              : 318 MiB (1%)
  158. Title                                    : Train.to.Busan.2.Peninsula.2020.KOREAN.1080p.BluRay.REMUX.AVC.DTS-HD.MA.TrueHD.7.1.Atmos-FGT
  159. Language                                 : English
  160. Service kind                             : Complete Main
  161. Default                                  : No
  162. Forced                                   : No
  163. Original source medium                   : Blu-ray
  164. Text #1
  165. ID                                       : 8
  166. Format                                   : UTF-8
  167. Codec ID                                 : S_TEXT/UTF8
  168. Codec ID/Info                            : UTF-8 Plain Text
  169. Duration                                 : 1 h 49 min
  170. Bit rate                                 : 30 b/s
  171. Count of elements                        : 1011
  172. Stream size                              : 24.2 KiB (0%)
  173. Title                                    : English-SRT
  174. Language                                 : English
  175. Default                                  : Yes
  176. Forced                                   : No
  177. Text #2
  178. ID                                       : 9
  179. ID in the original source medium         : 4608 (0x1200)
  180. Format                                   : PGS
  181. Muxing mode                              : zlib
  182. Codec ID                                 : S_HDMV/PGS
  183. Codec ID/Info                            : Picture based subtitle format used on BDs/HD-DVDs
  184. Duration                                 : 1 h 54 min
  185. Bit rate                                 : 19.1 kb/s
  186. Count of elements                        : 2085
  187. Stream size                              : 15.6 MiB (0%)
  188. Title                                    : English-SDH-PGS
  189. Language                                 : English
  190. Default                                  : No
  191. Forced                                   : No
  192. Original source medium                   : Blu-ray
  193. Text #3
  194. ID                                       : 10
  195. ID in the original source medium         : 4608 (0x1200)
  196. Format                                   : PGS
  197. Muxing mode                              : zlib
  198. Codec ID                                 : S_HDMV/PGS
  199. Codec ID/Info                            : Picture based subtitle format used on BDs/HD-DVDs
  200. Duration                                 : 26 min 14 s
  201. Bit rate                                 : 296 b/s
  202. Count of elements                        : 8
  203. Stream size                              : 56.9 KiB (0%)
  204. Title                                    : English-FORCED-PGS
  205. Language                                 : English
  206. Default                                  : No
  207. Forced                                   : No
  208. Original source medium                   : Blu-ray
  209. Text #4
  210. ID                                       : 11
  211. ID in the original source medium         : 4609 (0x1201)
  212. Format                                   : PGS
  213. Muxing mode                              : zlib
  214. Codec ID                                 : S_HDMV/PGS
  215. Codec ID/Info                            : Picture based subtitle format used on BDs/HD-DVDs
  216. Duration                                 : 1 h 54 min
  217. Bit rate                                 : 15.0 kb/s
  218. Count of elements                        : 1629
  219. Stream size                              : 12.3 MiB (0%)
  220. Title                                    : English-PGS
  221. Language                                 : English
  222. Default                                  : No
  223. Forced                                   : No
  224. Original source medium                   : Blu-ray
  225. Menu
  226. 00:00:00.000                             : en:Chapter 01
  227. 00:09:45.500                             : en:Chapter 02
  228. 00:18:59.500                             : en:Chapter 03
  229. 00:27:25.416                             : en:Chapter 04
  230. 00:39:40.500                             : en:Chapter 05
  231. 00:46:31.916                             : en:Chapter 06
  232. 00:58:44.458                             : en:Chapter 07
  233. 01:08:44.666                             : en:Chapter 08
  234. 01:18:08.291                             : en:Chapter 09
  235. 01:29:02.916                             : en:Chapter 10
  236. 01:39:40.875                             : en:Chapter 11
  237. 01:51:12.458                             : en:Chapter 12
复制代码





                                       
                                       

                                       
                                       
                                       




釜山行2:半岛 Train.to.Busan.2.Peninsula.2020.KOREAN.1080p.BluRay.REMUX.AVC.DTS-HD.MA.TrueHD.7.1.Atmos-FGT 34.60GB

Train.to.Busan.2.Peninsula.2020.KOREAN.1080p.BluRay.REMUX.AVC.DTS-HD.MA.TrueHD.7.zip

87.28 KB, 下载次数: 6, 下载积分: 蓝光币 -2

回复

使用道具 举报

懒得打字嘛,点击右侧快捷回复 【右侧内容,后台自定义】
您需要登录后才可以回帖 登录 | 立即加入

本版积分规则

Archiver|小黑屋| 蓝光电影网 |网站地图

Copyright © 2021 Comsenz Inc. Powered by 蓝光电影网

蓝光电影网

本站内容由用户自主分享和转载自互联网,转载目的在于传递更多信息,并不代表本网赞同其观点和对其真实性负责。

如有侵权、违反国家法律政策行为,请联系我们,我们会第一时间及时清除和处理!

举报反馈邮箱:[email protected]

快速回复 返回顶部 返回列表