找回密码

蓝光电影网

查看: 14|回复: 0

[其他] 凶手就在门外/叠影谋杀案 Copycat.1995.1080p.BluRay.x264.DTS-FGT 8.74GB

[复制链接]
蓝光币
515
发表于 2020-9-22 11:34:16 | 显示全部楼层 |阅读模式


◎译  名 凶手就在门外/叠影谋杀案/剽窃者
◎片  名 Copycat
◎年  代 1995
◎产  地 美国
◎类  别 悬疑 / 惊悚 / 犯罪
◎语  言 英语
◎上映日期 1995-10-27
◎IMDb评分  6.6/10 from 53023 users
◎IMDb链接  https://www.imdb.com/title/tt0112722/
◎豆瓣评分 6.8/10 from 2002 users
◎豆瓣链接 https://movie.douban.com/subject/1294197/
◎片  长 123 分钟
◎导  演 乔恩·阿米尔 Jon Amiel
◎编  剧 安·白德曼 Ann Biderman
◎主  演 西格妮·韦弗 Sigourney Weaver
       霍利·亨特 Holly Hunter
       德蒙特·莫罗尼 Dermot Mulroney
       威廉·麦克纳马拉 William McNamara
       小哈里·康尼克 Harry Connick Jr.
       J·E·弗里曼 J.E. Freeman
       威尔·帕顿 Will Patton
       约翰·罗斯曼 John Rothman
       Scott DeVenney
       余朝汉 Kelvin Han Yee
       戴维·迈克尔·西尔弗曼 David Michael Silverman
◎标  签 悬疑 | 犯罪 | 美国 | 惊悚 | 1995 | 美国电影 | 心理 | 电影
◎简  介


  海伦(西格妮·韦弗 Sigourney Weaver 饰)是一位犯罪心理分析师,在多年的工作中,她以其很是出色的推理才能破获了诸多连环凶杀案,在为自己赢得声誉的同时,也遭到了来自暴徒的进犯,以后,受惊的海伦决议足不出户的蜗居在家中,工作和生活皆依靠强大的收集完成。就这样,很多年曩昔了。
  
  比来,几起相继发生的杀人案件让女警珍妮(霍利·亨特 Holly Hunter 饰)很是头疼,穷途末路的她只得向经历丰富的海伦求救。各种线索表白此次的案件和海伦已包办过的案件有着千丝万缕的联系,在珍妮的劝说下,海伦决议站出来找到事务的真相。而迟疑满志的海伦不晓得的是,可怕的凶手已经来到了她的身旁。
  1. Video
  2. ID                                       : 1
  3. Format                                   : AVC
  4. Format/Info                              : Advanced Video Codec
  5. Format profile                           : [email protected]
  6. Format settings, CABAC                   : Yes
  7. Format settings, ReFrames                : 5 frames
  8. Codec ID                                 : V_MPEG4/ISO/AVC
  9. Duration                                 : 2h 3mn
  10. Bit rate                                 : 8 660 Kbps
  11. Width                                    : 1 920 pixels
  12. Height                                   : 800 pixels
  13. Display aspect ratio                     : 2.40:1
  14. Frame rate mode                          : Constant
  15. Frame rate                               : 23.976 fps
  16. Color space                              : YUV
  17. Chroma subsampling                       : 4:2:0
  18. Bit depth                                : 8 bits
  19. Scan type                                : Progressive
  20. Bits/(Pixel*Frame)                       : 0.235
  21. Stream size                              : 7.27 GiB (83%)
  22. Writing library                          : x264 core 116 r2019 9cc407d
  23. Encoding settings                        : cabac=1 / ref=5 / deblock=1:0:0 / analyse=0x3:0x113 / me=umh / subme=8 / psy=1 / psy_rd=1.00:0.00 / mixed_ref=1 / me_range=16 / chroma_me=1 / trellis=1 / 8x8dct=1 / cqm=0 / deadzone=21,11 / fast_pskip=1 / chroma_qp_offset=-2 / threads=12 / sliced_threads=0 / nr=0 / decimate=1 / interlaced=0 / bluray_compat=0 / constrained_intra=0 / bframes=3 / b_pyramid=2 / b_adapt=2 / b_bias=0 / direct=3 / weightb=1 / open_gop=0 / weightp=2 / keyint=240 / keyint_min=24 / scenecut=40 / intra_refresh=0 / rc_lookahead=50 / rc=2pass / mbtree=1 / bitrate=8660 / ratetol=1.0 / qcomp=0.60 / qpmin=0 / qpmax=69 / qpstep=4 / cplxblur=20.0 / qblur=0.5 / ip_ratio=1.40 / aq=1:1.00
  24. Language                                 : English
  25. Default                                  : Yes
  26. Forced                                   : No
  27. Audio
  28. ID                                       : 2
  29. Format                                   : DTS
  30. Format/Info                              : Digital Theater Systems
  31. Mode                                     : 16
  32. Format settings, Endianness              : Big
  33. Codec ID                                 : A_DTS
  34. Duration                                 : 2h 3mn
  35. Bit rate mode                            : Constant
  36. Bit rate                                 : 1 509 Kbps
  37. Channel(s)                               : 6 channels
  38. Channel positions                        : Front: L C R, Side: L R, LFE
  39. Sampling rate                            : 48.0 KHz
  40. Bit depth                                : 24 bits
  41. Compression mode                         : Lossy
  42. Stream size                              : 1.30 GiB (15%)
  43. Language                                 : English
  44. Default                                  : Yes
  45. Forced                                   : No
  46. Text
  47. ID                                       : 3
  48. Format                                   : UTF-8
  49. Codec ID                                 : S_TEXT/UTF8
  50. Codec ID/Info                            : UTF-8 Plain Text
  51. Language                                 : English
  52. Default                                  : No
  53. Forced                                   : No
  54. Menu
  55. 00:00:00.000                             : en:00:00:00.000
  56. 00:03:51.398                             : en:00:03:51.398
  57. 00:07:12.098                             : en:00:07:12.098
  58. 00:10:25.500                             : en:00:10:25.500
  59. 00:12:41.844                             : en:00:12:41.844
  60. 00:13:53.249                             : en:00:13:53.249
  61. 00:19:19.950                             : en:00:19:19.950
  62. 00:20:50.249                             : en:00:20:50.249
  63. 00:25:26.692                             : en:00:25:26.692
  64. 00:31:40.107                             : en:00:31:40.107
  65. 00:33:41.478                             : en:00:33:41.478
  66. 00:36:21.262                             : en:00:36:21.262
  67. 00:38:16.252                             : en:00:38:16.252
  68. 00:42:17.493                             : en:00:42:17.493
  69. 00:47:07.825                             : en:00:47:07.825
  70. 00:48:41.085                             : en:00:48:41.085
  71. 00:51:32.840                             : en:00:51:32.840
  72. 00:53:50.894                             : en:00:53:50.894
  73. 00:58:07.067                             : en:00:58:07.067
  74. 01:00:21.868                             : en:01:00:21.868
  75. 01:06:42.248                             : en:01:06:42.248
  76. 01:09:16.402                             : en:01:09:16.402
  77. 01:11:31.662                             : en:01:11:31.662
  78. 01:14:42.770                             : en:01:14:42.770
  79. 01:16:41.555                             : en:01:16:41.555
  80. 01:21:54.952                             : en:01:21:54.952
  81. 01:25:31.793                             : en:01:25:31.793
  82. 01:28:22.547                             : en:01:28:22.547
  83. 01:32:50.607                             : en:01:32:50.607
  84. 01:36:12.141                             : en:01:36:12.141
  85. 01:38:13.596                             : en:01:38:13.596
  86. 01:39:26.210                             : en:01:39:26.210
  87. 01:42:36.317                             : en:01:42:36.317
  88. 01:47:33.155                             : en:01:47:33.155
  89. 01:49:34.151                             : en:01:49:34.151
  90. 01:51:02.656                             : en:01:51:02.656
  91. 01:52:25.822                             : en:01:52:25.822
  92. 01:53:35.392                             : en:01:53:35.392
  93. 01:55:30.215                             : en:01:55:30.215
复制代码









                                       
                                       

                                       
                                       
                                       




回复

使用道具 举报

懒得打字嘛,点击右侧快捷回复 【右侧内容,后台自定义】
您需要登录后才可以回帖 登录 | 立即加入

本版积分规则

Archiver|小黑屋| 蓝光电影网 |网站地图

Copyright © 2021 Comsenz Inc. Powered by 蓝光电影网

蓝光电影网

本站内容由用户自主分享和转载自互联网,转载目的在于传递更多信息,并不代表本网赞同其观点和对其真实性负责。

如有侵权、违反国家法律政策行为,请联系我们,我们会第一时间及时清除和处理!

举报反馈邮箱:[email protected]

快速回复 返回顶部 返回列表