找回密码

蓝光电影网

查看: 36|回复: 0

[动作] 新变种人 The.New.Mutants.2020.1080p.BluRay.REMUX.AVC.DTS-HD.MA.TrueHD.7.1.Atmos-FGT 27.29GB

[复制链接]
蓝光币
511
发表于 2020-11-11 21:00:09 | 显示全部楼层 |阅读模式


◎译  名 新变种人/X-Men: The New Mutants/变种人(台)/新变档人(豆友译名)/新异变人(港)
◎片  名 The New Mutants
◎年  代 2020
◎产  地 美国
◎类  别 行动 / 科幻 / 可骇
◎语  言 英语
◎上映日期 2020-08-28(美国)
◎IMDb评分  5.4/10 from 18573 users
◎IMDb链接  https://www.imdb.com/title/tt4682266/
◎豆瓣评分 4.5/10 from 5379 users
◎豆瓣链接 https://movie.douban.com/subject/26389321/
◎片  长 98分钟
◎导  演 约什·布恩 Josh Boone
◎编  剧 约什·布恩 Josh Boone / 内特·李 Knate Lee / 克里斯·克雷蒙 Chris Claremont / 莱恩·韦恩 Len Wein / 戴夫·科克勒姆 Dave Cockrum
◎主  演 麦茜·威廉姆斯 Maisie Williams
       安雅·泰勒-乔伊 Anya Taylor-Joy
       查理·希顿 Charlie Heaton
       艾莉丝·布拉加 Alice Braga
       布鲁·亨特 Blu Hunt
       亨利·扎格 Henry Zaga
       亚当·比奇 Adam Beach
       Colbi Gannett
       海皮·安德森 Happy Anderson
       玛丽莲·曼森 Marilyn Manson
◎标  签 X战警 | 科幻 | 漫威 | X-Men | 美国 | Marvel | 超级豪杰 | 漫画改编
◎简  介


  当五位具有特别才能的青少年被关入奥秘机构,有一股超自然恶势力正捋臂张拳,他们必须面临曩昔的罪行,但心里的恐惧行将成真。奥秘的背后似乎有庞大的诡计正在成形,他们能否能勇敢匹敌本身的气力,逃走这一切桎梏……
◎获奖情况
  第6届豆瓣电影年度榜单 ?(2019)
  最值得期待的外语电影(提名)
  1. Video
  2. ID                                       : 1
  3. ID in the original source medium         : 4113 (0x1011)
  4. Format                                   : AVC
  5. Format/Info                              : Advanced Video Codec
  6. Format profile                           : [email protected]
  7. Format settings                          : CABAC / 4 Ref Frames
  8. Format settings, CABAC                   : Yes
  9. Format settings, Reference frames        : 4 frames
  10. Codec ID                                 : V_MPEG4/ISO/AVC
  11. Duration                                 : 1 h 34 min
  12. Bit rate mode                            : Variable
  13. Bit rate                                 : 30.3 Mb/s
  14. Maximum bit rate                         : 33.0 Mb/s
  15. Width                                    : 1 920 pixels
  16. Height                                   : 1 080 pixels
  17. Display aspect ratio                     : 16:9
  18. Frame rate mode                          : Constant
  19. Frame rate                               : 23.976 (24000/1001/189150) FPS
  20. Color space                              : YUV
  21. Chroma subsampling                       : 4:2:0
  22. Bit depth                                : 8 bits
  23. Scan type                                : Progressive
  24. Bits/(Pixel*Frame)                       : 0.609
  25. Stream size                              : 19.9 GiB (73%)
  26. Title                                    : The.New.Mutants.2020.1080p.BluRay.REMUX.AVC.DTS-HD.MA.TrueHD.7.1.Atmos-FGT
  27. Language                                 : English
  28. Default                                  : No
  29. Forced                                   : No
  30. Original source medium                   : Blu-ray
  31. Audio #1
  32. ID                                       : 2
  33. Format                                   : MLP FBA 16-ch
  34. Format/Info                              : Meridian Lossless Packing FBA with 16-channel presentation
  35. Commercial name                          : Dolby TrueHD with Dolby Atmos
  36. Codec ID                                 : A_TRUEHD
  37. Duration                                 : 1 h 34 min
  38. Bit rate mode                            : Variable
  39. Bit rate                                 : 4 125 kb/s
  40. Maximum bit rate                         : 8 931 kb/s
  41. Channel(s)                               : 8 channels
  42. Channel layout                           : L R C LFE Ls Rs Lb Rb
  43. Sampling rate                            : 48.0 kHz
  44. Frame rate                               : 1 200.000 FPS (40 SPF)
  45. Compression mode                         : Lossless
  46. Stream size                              : 2.71 GiB (10%)
  47. Title                                    : The.New.Mutants.2020.1080p.BluRay.REMUX.AVC.DTS-HD.MA.TrueHD.7.1.Atmos-FGT
  48. Language                                 : English
  49. Default                                  : Yes
  50. Forced                                   : No
  51. Number of dynamic objects                : 13
  52. Bed channel count                        : 1 channel
  53. Bed channel configuration                : LFE
  54. Audio #2
  55. ID                                       : 3
  56. ID in the original source medium         : 4352 (0x1100)
  57. Format                                   : DTS XLL
  58. Format/Info                              : Digital Theater Systems
  59. Commercial name                          : DTS-HD Master Audio
  60. Codec ID                                 : A_DTS
  61. Duration                                 : 1 h 34 min
  62. Bit rate mode                            : Variable
  63. Bit rate                                 : 4 543 kb/s
  64. Channel(s)                               : 8 channels
  65. Channel layout                           : C L R LFE Lb Rb Lss Rss
  66. Sampling rate                            : 48.0 kHz
  67. Frame rate                               : 93.750 FPS (512 SPF)
  68. Bit depth                                : 24 bits
  69. Compression mode                         : Lossless
  70. Stream size                              : 2.98 GiB (11%)
  71. Title                                    : The.New.Mutants.2020.1080p.BluRay.REMUX.AVC.DTS-HD.MA.TrueHD.7.1.Atmos-FGT
  72. Language                                 : English
  73. Default                                  : No
  74. Forced                                   : No
  75. Original source medium                   : Blu-ray
  76. Audio #3
  77. ID                                       : 4
  78. Format                                   : AC-3
  79. Format/Info                              : Audio Coding 3
  80. Commercial name                          : Dolby Digital
  81. Codec ID                                 : A_AC3
  82. Duration                                 : 1 h 34 min
  83. Bit rate mode                            : Constant
  84. Bit rate                                 : 640 kb/s
  85. Channel(s)                               : 6 channels
  86. Channel layout                           : L R C LFE Ls Rs
  87. Sampling rate                            : 48.0 kHz
  88. Frame rate                               : 31.250 FPS (1536 SPF)
  89. Compression mode                         : Lossy
  90. Stream size                              : 431 MiB (2%)
  91. Title                                    : The.New.Mutants.2020.1080p.BluRay.REMUX.AVC.DTS-HD.MA.TrueHD.7.1.Atmos-FGT
  92. Language                                 : English
  93. Service kind                             : Complete Main
  94. Default                                  : No
  95. Forced                                   : No
  96. Audio #4
  97. ID                                       : 5
  98. ID in the original source medium         : 4353 (0x1101)
  99. Format                                   : AC-3
  100. Format/Info                              : Audio Coding 3
  101. Commercial name                          : Dolby Digital
  102. Codec ID                                 : A_AC3
  103. Duration                                 : 1 h 34 min
  104. Bit rate mode                            : Constant
  105. Bit rate                                 : 320 kb/s
  106. Channel(s)                               : 2 channels
  107. Channel layout                           : L R
  108. Sampling rate                            : 48.0 kHz
  109. Frame rate                               : 31.250 FPS (1536 SPF)
  110. Compression mode                         : Lossy
  111. Stream size                              : 215 MiB (1%)
  112. Title                                    : The.New.Mutants.2020.1080p.BluRay.REMUX.AVC.DTS-HD.MA.TrueHD.7.1.Atmos-FGT
  113. Language                                 : English
  114. Service kind                             : Complete Main
  115. Default                                  : No
  116. Forced                                   : No
  117. Original source medium                   : Blu-ray
  118. Audio #5
  119. ID                                       : 6
  120. ID in the original source medium         : 4354 (0x1102)
  121. Format                                   : AC-3
  122. Format/Info                              : Audio Coding 3
  123. Commercial name                          : Dolby Digital
  124. Codec ID                                 : A_AC3
  125. Duration                                 : 1 h 34 min
  126. Bit rate mode                            : Constant
  127. Bit rate                                 : 640 kb/s
  128. Channel(s)                               : 6 channels
  129. Channel layout                           : L R C LFE Ls Rs
  130. Sampling rate                            : 48.0 kHz
  131. Frame rate                               : 31.250 FPS (1536 SPF)
  132. Compression mode                         : Lossy
  133. Stream size                              : 431 MiB (2%)
  134. Title                                    : The.New.Mutants.2020.1080p.BluRay.REMUX.AVC.DTS-HD.MA.TrueHD.7.1.Atmos-FGT
  135. Language                                 : French
  136. Service kind                             : Complete Main
  137. Default                                  : No
  138. Forced                                   : No
  139. Original source medium                   : Blu-ray
  140. Audio #6
  141. ID                                       : 7
  142. ID in the original source medium         : 4355 (0x1103)
  143. Format                                   : AC-3
  144. Format/Info                              : Audio Coding 3
  145. Commercial name                          : Dolby Digital
  146. Codec ID                                 : A_AC3
  147. Duration                                 : 1 h 34 min
  148. Bit rate mode                            : Constant
  149. Bit rate                                 : 640 kb/s
  150. Channel(s)                               : 6 channels
  151. Channel layout                           : L R C LFE Ls Rs
  152. Sampling rate                            : 48.0 kHz
  153. Frame rate                               : 31.250 FPS (1536 SPF)
  154. Compression mode                         : Lossy
  155. Stream size                              : 431 MiB (2%)
  156. Title                                    : The.New.Mutants.2020.1080p.BluRay.REMUX.AVC.DTS-HD.MA.TrueHD.7.1.Atmos-FGT
  157. Language                                 : Spanish
  158. Service kind                             : Complete Main
  159. Default                                  : No
  160. Forced                                   : No
  161. Original source medium                   : Blu-ray
  162. Audio #7
  163. ID                                       : 8
  164. ID in the original source medium         : 4356 (0x1104)
  165. Format                                   : AC-3
  166. Format/Info                              : Audio Coding 3
  167. Commercial name                          : Dolby Digital
  168. Codec ID                                 : A_AC3
  169. Duration                                 : 1 h 34 min
  170. Bit rate mode                            : Constant
  171. Bit rate                                 : 192 kb/s
  172. Channel(s)                               : 2 channels
  173. Channel layout                           : L R
  174. Sampling rate                            : 48.0 kHz
  175. Frame rate                               : 31.250 FPS (1536 SPF)
  176. Compression mode                         : Lossy
  177. Stream size                              : 129 MiB (0%)
  178. Title                                    : The.New.Mutants.2020.1080p.BluRay.REMUX.AVC.DTS-HD.MA.TrueHD.7.1.Atmos-FGT
  179. Language                                 : English
  180. Service kind                             : Complete Main
  181. Default                                  : No
  182. Forced                                   : No
  183. Original source medium                   : Blu-ray
  184. Text #1
  185. ID                                       : 9
  186. Format                                   : UTF-8
  187. Codec ID                                 : S_TEXT/UTF8
  188. Codec ID/Info                            : UTF-8 Plain Text
  189. Duration                                 : 1 h 26 min
  190. Bit rate                                 : 39 b/s
  191. Count of elements                        : 1029
  192. Stream size                              : 25.1 KiB (0%)
  193. Title                                    : English-SRT
  194. Language                                 : English
  195. Default                                  : Yes
  196. Forced                                   : No
  197. Text #2
  198. ID                                       : 10
  199. ID in the original source medium         : 4608 (0x1200)
  200. Format                                   : PGS
  201. Muxing mode                              : zlib
  202. Codec ID                                 : S_HDMV/PGS
  203. Codec ID/Info                            : Picture based subtitle format used on BDs/HD-DVDs
  204. Duration                                 : 1 h 26 min
  205. Bit rate                                 : 34.8 kb/s
  206. Count of elements                        : 2686
  207. Stream size                              : 21.4 MiB (0%)
  208. Title                                    : English-PGS
  209. Language                                 : English
  210. Default                                  : No
  211. Forced                                   : No
  212. Original source medium                   : Blu-ray
  213. Text #3
  214. ID                                       : 11
  215. ID in the original source medium         : 4609 (0x1201)
  216. Format                                   : PGS
  217. Muxing mode                              : zlib
  218. Codec ID                                 : S_HDMV/PGS
  219. Codec ID/Info                            : Picture based subtitle format used on BDs/HD-DVDs
  220. Duration                                 : 1 h 33 min
  221. Bit rate                                 : 25.2 kb/s
  222. Count of elements                        : 2020
  223. Stream size                              : 16.8 MiB (0%)
  224. Title                                    : French-PGS
  225. Language                                 : French
  226. Default                                  : No
  227. Forced                                   : No
  228. Original source medium                   : Blu-ray
  229. Text #4
  230. ID                                       : 12
  231. ID in the original source medium         : 4610 (0x1202)
  232. Format                                   : PGS
  233. Muxing mode                              : zlib
  234. Codec ID                                 : S_HDMV/PGS
  235. Codec ID/Info                            : Picture based subtitle format used on BDs/HD-DVDs
  236. Duration                                 : 1 h 26 min
  237. Bit rate                                 : 26.5 kb/s
  238. Count of elements                        : 1980
  239. Stream size                              : 16.3 MiB (0%)
  240. Title                                    : Spanish-PGS
  241. Language                                 : Spanish
  242. Default                                  : No
  243. Forced                                   : No
  244. Original source medium                   : Blu-ray
  245. Text #5
  246. ID                                       : 13
  247. ID in the original source medium         : 4611 (0x1203)
  248. Format                                   : PGS
  249. Muxing mode                              : zlib
  250. Codec ID                                 : S_HDMV/PGS
  251. Codec ID/Info                            : Picture based subtitle format used on BDs/HD-DVDs
  252. Duration                                 : 1 h 33 min
  253. Bit rate                                 : 82.8 kb/s
  254. Count of elements                        : 3678
  255. Stream size                              : 55.4 MiB (0%)
  256. Title                                    : English-COMMENTARY-PGS
  257. Language                                 : English
  258. Default                                  : No
  259. Forced                                   : No
  260. Original source medium                   : Blu-ray
  261. Text #6
  262. ID                                       : 14
  263. ID in the original source medium         : 4612 (0x1204)
  264. Format                                   : PGS
  265. Muxing mode                              : zlib
  266. Codec ID                                 : S_HDMV/PGS
  267. Codec ID/Info                            : Picture based subtitle format used on BDs/HD-DVDs
  268. Duration                                 : 1 h 33 min
  269. Bit rate                                 : 66.5 kb/s
  270. Count of elements                        : 3542
  271. Stream size                              : 44.5 MiB (0%)
  272. Title                                    : French-COMMENTARY-PGS
  273. Language                                 : French
  274. Default                                  : No
  275. Forced                                   : No
  276. Original source medium                   : Blu-ray
  277. Text #7
  278. ID                                       : 15
  279. ID in the original source medium         : 4613 (0x1205)
  280. Format                                   : PGS
  281. Muxing mode                              : zlib
  282. Codec ID                                 : S_HDMV/PGS
  283. Codec ID/Info                            : Picture based subtitle format used on BDs/HD-DVDs
  284. Duration                                 : 1 h 33 min
  285. Bit rate                                 : 67.4 kb/s
  286. Count of elements                        : 3542
  287. Stream size                              : 45.1 MiB (0%)
  288. Title                                    : Spanish-COMMENTARY-PGS
  289. Language                                 : Spanish
  290. Default                                  : No
  291. Forced                                   : No
  292. Original source medium                   : Blu-ray
  293. Text #8
  294. ID                                       : 16
  295. ID in the original source medium         : 4614 (0x1206)
  296. Format                                   : PGS
  297. Muxing mode                              : zlib
  298. Codec ID                                 : S_HDMV/PGS
  299. Codec ID/Info                            : Picture based subtitle format used on BDs/HD-DVDs
  300. Duration                                 : 1 h 27 min
  301. Bit rate                                 : 990 b/s
  302. Count of elements                        : 70
  303. Stream size                              : 638 KiB (0%)
  304. Title                                    : French-FORCED-PGS
  305. Language                                 : French
  306. Default                                  : No
  307. Forced                                   : No
  308. Original source medium                   : Blu-ray
  309. Text #9
  310. ID                                       : 17
  311. ID in the original source medium         : 4615 (0x1207)
  312. Format                                   : PGS
  313. Muxing mode                              : zlib
  314. Codec ID                                 : S_HDMV/PGS
  315. Codec ID/Info                            : Picture based subtitle format used on BDs/HD-DVDs
  316. Duration                                 : 1 h 12 min
  317. Bit rate                                 : 857 b/s
  318. Count of elements                        : 38
  319. Stream size                              : 459 KiB (0%)
  320. Title                                    : Spanish-FORCED-PGS
  321. Language                                 : Spanish
  322. Default                                  : No
  323. Forced                                   : No
  324. Original source medium                   : Blu-ray
  325. Menu
  326. 00:00:00.000                             : en:Chapter 01
  327. 00:02:39.951                             : en:Chapter 02
  328. 00:08:07.737                             : en:Chapter 03
  329. 00:10:53.861                             : en:Chapter 04
  330. 00:14:33.038                             : en:Chapter 05
  331. 00:17:23.917                             : en:Chapter 06
  332. 00:19:53.066                             : en:Chapter 07
  333. 00:23:41.878                             : en:Chapter 08
  334. 00:27:54.589                             : en:Chapter 09
  335. 00:30:30.078                             : en:Chapter 10
  336. 00:33:26.587                             : en:Chapter 11
  337. 00:39:36.791                             : en:Chapter 12
  338. 00:43:12.965                             : en:Chapter 13
  339. 00:47:53.287                             : en:Chapter 14
  340. 00:50:35.157                             : en:Chapter 15
  341. 00:52:12.254                             : en:Chapter 16
  342. 00:55:28.825                             : en:Chapter 17
  343. 00:57:13.054                             : en:Chapter 18
  344. 01:00:17.113                             : en:Chapter 19
  345. 01:02:37.754                             : en:Chapter 20
  346. 01:06:36.367                             : en:Chapter 21
  347. 01:11:12.101                             : en:Chapter 22
  348. 01:13:44.461                             : en:Chapter 23
  349. 01:15:07.878                             : en:Chapter 24
  350. 01:18:57.107                             : en:Chapter 25
  351. 01:21:52.365                             : en:Chapter 26
  352. 01:24:32.275                             : en:Chapter 27
  353. 01:26:46.201                             : en:Chapter 28
复制代码






                                       
                                       

                                       
                                       
                                       




回复

使用道具 举报

懒得打字嘛,点击右侧快捷回复 【右侧内容,后台自定义】
您需要登录后才可以回帖 登录 | 立即加入

本版积分规则

Archiver|小黑屋| 蓝光电影网 |网站地图

Copyright © 2021 Comsenz Inc. Powered by 蓝光电影网

蓝光电影网

本站内容由用户自主分享和转载自互联网,转载目的在于传递更多信息,并不代表本网赞同其观点和对其真实性负责。

如有侵权、违反国家法律政策行为,请联系我们,我们会第一时间及时清除和处理!

举报反馈邮箱:[email protected]

快速回复 返回顶部 返回列表