找回密码

蓝光电影网

查看: 10|回复: 0

[动作] 钢铁侠2/钢铁人2 Iron.Man.2.2010.REMASTERED.1080p.BluRay.x264.TrueHD.7.1.Atmos-SWTYBLZ 19.48GB

[复制链接]
蓝光币
519
发表于 2019-8-10 04:51:53 | 显示全部楼层 |阅读模式
[img]https://img1.doubanio.com/view/photo/l_ratio_poster/public/p451885601.jpg[img]
◎译  名 钢铁侠2 / 钢铁人2(台) / 铁人2 / 铁甲奇侠2(港)
◎片  名 Iron Man 2
◎年  代 2010
◎产  地 美国
◎类  别 行动 / 科幻 / 冒险
◎语  言 英语 / 法语 / 俄语
◎上映日期 2010-05-07(中国大陆/美国)
◎IMDb评分  7.0/10 from 665986 users
◎IMDb链接  http://www.imdb.com/title/tt1228705
◎豆瓣评分 7.6/10 from 308044 users
◎豆瓣链接 https://movie.douban.com/subject/3066739/
◎片  长 124 分钟
◎导  演 乔恩·费儒 Jon Favreau
◎编  剧 贾斯汀·塞洛克斯 Justin Theroux
◎主  演 小罗伯特·唐尼 Robert Downey Jr.
       格温妮斯·帕特洛 Gwyneth Paltrow
       米基·洛克 Mickey Rourke
       斯嘉丽·约翰逊 Scarlett Johansson
       山姆·洛克威尔 Sam Rockwell
       唐·钱德尔 Don Cheadle
       塞缪尔·杰克逊 Samuel L. Jackson
       乔恩·费儒 Jon Favreau
       保罗·贝坦尼 Paul Bettany
       克拉克·格雷格 Clark Gregg
       凯特·玛拉 Kate Mara
       约翰·斯拉特里 John Slattery

◎标  签 科幻 | 美国 | 钢铁侠 | 行动 | 漫威 | 漫画改编 | 美国电影 | RobertDowneyJr
◎简  介  
  钢铁侠托尼·斯塔克(小罗伯特·唐尼 Robert Downey Jr. 饰)在国会听证上拒断交出最新技术。与此同时,他发现胸口的微型电弧反应炉正敏捷形成血液的钯金属中毒。沮丧的托尼将斯塔克公司的总裁职务交予了秘书波兹(格温妮丝·帕特罗 Gwyneth Paltrow 饰),由她全权负责正在停止的纽约斯塔克展览会。波兹从法令部分调来助理娜塔莉(斯美人·约翰逊 Scarlett Johansson 饰)照顾托尼。托尼在媒体前的高调亮相引发了其父昔时同事的儿子,伊凡(米基·洛克 Mickey Rourke 饰)的不满。为了实施报复,他子承父业,研制出了一套可与钢铁战衣相媲美的装备。伊凡的技术引发了托尼的合作对手,军械商贾斯丁·汉默(山姆·洛克威尔 Sam Rockwell 饰)的留意,他想法将伊凡劫持出狱,奥秘研讨取代钢铁侠。正当托尼苦于钯金属中毒酿成的失意之时,他发现娜塔莉本来身负奥秘使命,而自己的任性,也形成了与好友,空军上校罗尼(唐·钱德尔 Don Cheadle 饰)的交恶,眼看大势就要失控……
◎获奖情况  
  第83届奥斯卡金像奖(2011)
  最好视觉结果(提名) 盖德·赖特 / 丹尼尔·萨迪克 / 加内克·西尔斯 / Ben Snow
  第20届MTV电影奖(2011)
  MTV电影奖 最好反派(提名) 米基·洛克
  第12届美国青少年挑选奖(2010)
  最好科幻电影(提名)
  最好科幻电影男演员(提名) 小罗伯特·唐尼
  最好科幻电影女演员(提名) 斯嘉丽·约翰逊 / 格温妮斯·帕特洛
  最好电影舞蹈(提名) 小罗伯特·唐尼
  最好电影反派(提名) 米基·洛克
  最好电影打架(提名) 小罗伯特·唐尼 / 唐·钱德尔
  1. Video
  2. ID                                       : 1
  3. Format                                   : AVC
  4. Format/Info                              : Advanced Video Codec
  5. Format profile                           : [email protected]
  6. Format settings                          : CABAC / 5 Ref Frames
  7. Format settings, CABAC                   : Yes
  8. Format settings, Reference frames        : 5 frames
  9. Codec ID                                 : V_MPEG4/ISO/AVC
  10. Duration                                 : 2 h 4 min
  11. Bit rate                                 : 17.3 Mb/s
  12. Width                                    : 1 920 pixels
  13. Height                                   : 816 pixels
  14. Display aspect ratio                     : 2.35:1
  15. Frame rate mode                          : Constant
  16. Frame rate                               : 23.976 (24000/1001) FPS
  17. Color space                              : YUV
  18. Chroma subsampling                       : 4:2:0
  19. Bit depth                                : 8 bits
  20. Scan type                                : Progressive
  21. Bits/(Pixel*Frame)                       : 0.460
  22. Stream size                              : 15.0 GiB (77%)
  23. Title                                    : Iron.Man.2.2010.REMASTERED.1080p.BluRay.x264.TrueHD.7.1.Atmos-SWTYBLZ
  24. Writing library                          : x264 core 157 r2935 545de2f
  25. Encoding settings                        : cabac=1 / ref=5 / deblock=1:-1:-1 / analyse=0x3:0x133 / me=umh / subme=10 / psy=1 / psy_rd=1.00:0.15 / mixed_ref=1 / me_range=48 / chroma_me=1 / trellis=2 / 8x8dct=1 / cqm=0 / deadzone=21,11 / fast_pskip=1 / chroma_qp_offset=-3 / threads=25 / lookahead_threads=4 / sliced_threads=0 / nr=0 / decimate=0 / interlaced=0 / bluray_compat=0 / constrained_intra=0 / bframes=8 / b_pyramid=2 / b_adapt=2 / b_bias=0 / direct=3 / weightb=1 / open_gop=0 / weightp=2 / keyint=250 / keyint_min=23 / scenecut=40 / intra_refresh=0 / rc_lookahead=60 / rc=crf / mbtree=1 / crf=13.0 / qcomp=0.60 / qpmin=0 / qpmax=69 / qpstep=4 / ip_ratio=1.40 / aq=1:1.00
  26. Default                                  : Yes
  27. Forced                                   : No
  28. Audio #1
  29. ID                                       : 2
  30. Format                                   : MLP FBA 16-ch
  31. Format/Info                              : Meridian Lossless Packing FBA with 16-channel presentation
  32. Commercial name                          : Dolby TrueHD with Dolby Atmos
  33. Codec ID                                 : A_TRUEHD
  34. Duration                                 : 2 h 4 min
  35. Bit rate mode                            : Variable
  36. Bit rate                                 : 4 266 kb/s
  37. Maximum bit rate                         : 7 719 kb/s
  38. Channel(s)                               : 8 channels
  39. Channel layout                           : L R C LFE Ls Rs Lb Rb
  40. Sampling rate                            : 48.0 kHz
  41. Frame rate                               : 1 200.000 FPS (40 SPF)
  42. Compression mode                         : Lossless
  43. Stream size                              : 3.71 GiB (19%)
  44. Title                                    : Iron.Man.2.2010.REMASTERED.1080p.BluRay.x264.TrueHD.7.1.Atmos-SWTYBLZ
  45. Language                                 : English
  46. Default                                  : Yes
  47. Forced                                   : No
  48. Number of dynamic objects                : 13
  49. Bed channel count                        : 1 channel
  50. Bed channel configuration                : LFE
  51. Audio #2
  52. ID                                       : 3
  53. Format                                   : AC-3
  54. Format/Info                              : Audio Coding 3
  55. Commercial name                          : Dolby Digital
  56. Codec ID                                 : A_AC3
  57. Duration                                 : 2 h 4 min
  58. Bit rate mode                            : Constant
  59. Bit rate                                 : 640 kb/s
  60. Channel(s)                               : 6 channels
  61. Channel layout                           : L R C LFE Ls Rs
  62. Sampling rate                            : 48.0 kHz
  63. Frame rate                               : 31.250 FPS (1536 SPF)
  64. Bit depth                                : 16 bits
  65. Compression mode                         : Lossy
  66. Stream size                              : 570 MiB (3%)
  67. Title                                    : Iron.Man.2.2010.REMASTERED.1080p.BluRay.x264.TrueHD.7.1.Atmos-SWTYBLZ
  68. Language                                 : English
  69. Service kind                             : Complete Main
  70. Default                                  : No
  71. Forced                                   : No
  72. Text #1
  73. ID                                       : 4
  74. Format                                   : UTF-8
  75. Codec ID                                 : S_TEXT/UTF8
  76. Codec ID/Info                            : UTF-8 Plain Text
  77. Duration                                 : 2 h 4 min
  78. Bit rate                                 : 65 b/s
  79. Count of elements                        : 1523
  80. Stream size                              : 59.2 KiB (0%)
  81. Title                                    : English-SRT
  82. Language                                 : English
  83. Default                                  : Yes
  84. Forced                                   : No
  85. Text #2
  86. ID                                       : 5
  87. Format                                   : PGS
  88. Muxing mode                              : zlib
  89. Codec ID                                 : S_HDMV/PGS
  90. Codec ID/Info                            : Picture based subtitle format used on BDs/HD-DVDs
  91. Duration                                 : 2 h 4 min
  92. Bit rate                                 : 39.3 kb/s
  93. Count of elements                        : 3052
  94. Stream size                              : 34.9 MiB (0%)
  95. Title                                    : English
  96. Language                                 : English
  97. Default                                  : No
  98. Forced                                   : No
  99. Text #3
  100. ID                                       : 6
  101. Format                                   : PGS
  102. Muxing mode                              : zlib
  103. Codec ID                                 : S_HDMV/PGS
  104. Codec ID/Info                            : Picture based subtitle format used on BDs/HD-DVDs
  105. Duration                                 : 2 h 4 min
  106. Bit rate                                 : 53.1 kb/s
  107. Count of elements                        : 3440
  108. Stream size                              : 47.2 MiB (0%)
  109. Title                                    : English-SDH-PGS
  110. Language                                 : English
  111. Default                                  : No
  112. Forced                                   : No
  113. Text #4
  114. ID                                       : 7
  115. Format                                   : PGS
  116. Muxing mode                              : zlib
  117. Codec ID                                 : S_HDMV/PGS
  118. Codec ID/Info                            : Picture based subtitle format used on BDs/HD-DVDs
  119. Duration                                 : 2 h 4 min
  120. Bit rate                                 : 43.3 kb/s
  121. Count of elements                        : 3090
  122. Stream size                              : 38.4 MiB (0%)
  123. Title                                    : French-PGS
  124. Language                                 : French
  125. Default                                  : No
  126. Forced                                   : No
  127. Text #5
  128. ID                                       : 8
  129. Format                                   : PGS
  130. Muxing mode                              : zlib
  131. Codec ID                                 : S_HDMV/PGS
  132. Codec ID/Info                            : Picture based subtitle format used on BDs/HD-DVDs
  133. Duration                                 : 2 h 4 min
  134. Bit rate                                 : 33.7 kb/s
  135. Count of elements                        : 3216
  136. Stream size                              : 29.9 MiB (0%)
  137. Title                                    : French-PGS
  138. Language                                 : French
  139. Default                                  : No
  140. Forced                                   : No
  141. Text #6
  142. ID                                       : 9
  143. Format                                   : PGS
  144. Muxing mode                              : zlib
  145. Codec ID                                 : S_HDMV/PGS
  146. Codec ID/Info                            : Picture based subtitle format used on BDs/HD-DVDs
  147. Duration                                 : 2 h 4 min
  148. Bit rate                                 : 41.4 kb/s
  149. Count of elements                        : 2926
  150. Stream size                              : 36.8 MiB (0%)
  151. Title                                    : Italian-PGS
  152. Language                                 : Italian
  153. Default                                  : No
  154. Forced                                   : No
  155. Text #7
  156. ID                                       : 10
  157. Format                                   : PGS
  158. Muxing mode                              : zlib
  159. Codec ID                                 : S_HDMV/PGS
  160. Codec ID/Info                            : Picture based subtitle format used on BDs/HD-DVDs
  161. Duration                                 : 2 h 4 min
  162. Bit rate                                 : 26.3 kb/s
  163. Count of elements                        : 3124
  164. Stream size                              : 23.3 MiB (0%)
  165. Title                                    : Japanese-PGS
  166. Language                                 : Japanese
  167. Default                                  : No
  168. Forced                                   : No
  169. Text #8
  170. ID                                       : 11
  171. Format                                   : PGS
  172. Muxing mode                              : zlib
  173. Codec ID                                 : S_HDMV/PGS
  174. Codec ID/Info                            : Picture based subtitle format used on BDs/HD-DVDs
  175. Duration                                 : 2 h 4 min
  176. Bit rate                                 : 33.4 kb/s
  177. Count of elements                        : 2896
  178. Stream size                              : 29.6 MiB (0%)
  179. Title                                    : Norwegian-PGS
  180. Language                                 : Norwegian
  181. Default                                  : No
  182. Forced                                   : No
  183. Text #9
  184. ID                                       : 12
  185. Format                                   : PGS
  186. Muxing mode                              : zlib
  187. Codec ID                                 : S_HDMV/PGS
  188. Codec ID/Info                            : Picture based subtitle format used on BDs/HD-DVDs
  189. Duration                                 : 2 h 4 min
  190. Bit rate                                 : 36.2 kb/s
  191. Count of elements                        : 3092
  192. Stream size                              : 32.3 MiB (0%)
  193. Title                                    : Spanish-PGS
  194. Language                                 : Spanish
  195. Default                                  : No
  196. Forced                                   : No
  197. Text #10
  198. ID                                       : 13
  199. Format                                   : PGS
  200. Muxing mode                              : zlib
  201. Codec ID                                 : S_HDMV/PGS
  202. Codec ID/Info                            : Picture based subtitle format used on BDs/HD-DVDs
  203. Duration                                 : 2 h 4 min
  204. Bit rate                                 : 39.8 kb/s
  205. Count of elements                        : 2442
  206. Stream size                              : 35.3 MiB (0%)
  207. Title                                    : Swedish
  208. Language                                 : Swedish
  209. Default                                  : No
  210. Forced                                   : No
  211. Menu
  212. 00:00:00.000                             : en:Chapter 01
  213. 00:05:01.801                             : en:Chapter 02
  214. 00:11:05.081                             : en:Chapter 03
  215. 00:17:57.451                             : en:Chapter 04
  216. 00:25:50.507                             : en:Chapter 05
  217. 00:30:24.281                             : en:Chapter 06
  218. 00:37:30.498                             : en:Chapter 07
  219. 00:43:57.134                             : en:Chapter 08
  220. 00:51:36.844                             : en:Chapter 09
  221. 01:00:08.021                             : en:Chapter 10
  222. 01:06:59.015                             : en:Chapter 11
  223. 01:15:58.262                             : en:Chapter 12
  224. 01:21:10.783                             : en:Chapter 13
  225. 01:30:31.051                             : en:Chapter 14
  226. 01:38:46.838                             : en:Chapter 15
  227. 01:45:39.291                             : en:Chapter 16
  228. 01:54:14.848                             : en:Chapter 17
复制代码






                                       
                                       

                                       
                                       
                                       




回复

使用道具 举报

懒得打字嘛,点击右侧快捷回复 【右侧内容,后台自定义】
您需要登录后才可以回帖 登录 | 立即加入

本版积分规则

Archiver|小黑屋| 蓝光电影网 |网站地图

Copyright © 2021 Comsenz Inc. Powered by 蓝光电影网

蓝光电影网

本站内容由用户自主分享和转载自互联网,转载目的在于传递更多信息,并不代表本网赞同其观点和对其真实性负责。

如有侵权、违反国家法律政策行为,请联系我们,我们会第一时间及时清除和处理!

举报反馈邮箱:[email protected]

快速回复 返回顶部 返回列表