找回密码

蓝光电影网

查看: 39|回复: 0

[动作] 和平/Recon(美国) Peace.2019.1080p.BluRay.REMUX.AVC.DTS-HD.MA.5.1-FGT 16.24GB

[复制链接]
蓝光币
515
发表于 2020-11-9 09:27:36 | 显示全部楼层 |阅读模式


◎译  名 战争/Recon(美国)
◎片  名 Peace
◎年  代 2019
◎产  地 美国
◎类  别 行动 / 惊悚 / 战争
◎语  言 英语
◎上映日期 2019-10-26(奥斯汀电影节) / 2020-11-10(美国)
◎IMDb评分  4/10 from 108 users
◎IMDb链接  https://www.imdb.com/title/tt7713810/
◎豆瓣评分 /10 from 0 users
◎豆瓣链接 https://movie.douban.com/subject/30152169/
◎片  长 98分钟
◎导  演 罗伯特·大卫·波特 Robert David Port
◎编  剧 Richard Bausch / 罗伯特·大卫·波特 Robert David Port
◎主  演 亚历山大·路德韦格 Alexander Ludwig
       山姆·基利 Sam Keeley
       弗兰科·内罗 Franco Nero
       克里斯·布罗楚 Chris Brochu
◎标  签 美国 | 战争 | 惊悚 | 二战
◎简  介


  It follows four American soldiers set out on the grueling ascent of an Italian mountainside in the closing days of WWII, haunted by their evil sergeant’s cold-blooded murder of a young woman and with an old Italian man of uncertain loyalties as their guide.
  
  
  
  电影报告四名美国兵士在二战最初几天,在意大利山腰的艰辛攀缘中,被一位邪恶冷血的军官捕捉,后来获得一位意志不明的忠心耿耿的老人作为他们的带路人。
  1. Video
  2. ID                                       : 1
  3. ID in the original source medium         : 4113 (0x1011)
  4. Format                                   : AVC
  5. Format/Info                              : Advanced Video Codec
  6. Format profile                           : [email protected]
  7. Format settings                          : CABAC / 4 Ref Frames
  8. Format settings, CABAC                   : Yes
  9. Format settings, Reference frames        : 4 frames
  10. Format settings, GOP                     : M=1, N=3
  11. Codec ID                                 : V_MPEG4/ISO/AVC
  12. Duration                                 : 1 h 35 min
  13. Bit rate mode                            : Variable
  14. Bit rate                                 : 22.0 Mb/s
  15. Maximum bit rate                         : 30.0 Mb/s
  16. Width                                    : 1 920 pixels
  17. Height                                   : 1 080 pixels
  18. Display aspect ratio                     : 16:9
  19. Frame rate mode                          : Constant
  20. Frame rate                               : 23.976 (24000/1001/189150) FPS
  21. Standard                                 : Component
  22. Color space                              : YUV
  23. Chroma subsampling                       : 4:2:0
  24. Bit depth                                : 8 bits
  25. Scan type                                : Progressive
  26. Bits/(Pixel*Frame)                       : 0.443
  27. Stream size                              : 14.7 GiB (90%)
  28. Title                                    : Peace.2019.1080p.BluRay.REMUX.AVC.DTS-HD.MA.5.1-FGT
  29. Writing library                          : x264 core 144
  30. Encoding settings                        : cabac=1 / ref=4 / deblock=1:0:0 / analyse=0x3:0x113 / me=hex / subme=7 / psy=1 / psy_rd=1.00:0.00 / mixed_ref=1 / me_range=16 / chroma_me=1 / trellis=1 / 8x8dct=1 / cqm=1 / deadzone=21,11 / fast_pskip=1 / chroma_qp_offset=-2 / threads=6 / lookahead_threads=1 / sliced_threads=0 / slices=4 / nr=0 / decimate=1 / interlaced=0 / minigop=1 / stitchable=1 / constrained_intra=0 / bframes=2 / b_pyramid=0 / b_adapt=1 / b_bias=0 / direct=1 / weightb=1 / open_gop=1 / weightp=1 / keyint=24 / keyint_min=1 / scenecut=40 / intra_refresh=0 / rc_lookahead=24 / rc=2pass / mbtree=1 / bitrate=22000 / ratetol=1.0 / qcomp=0.60 / qpmin=3 / qpmax=69 / qpstep=4 / cplxblur=20.0 / qblur=0.5 / vbv_maxrate=30000 / vbv_bufsize=30000 / nal_hrd=vbr / filler=0 / ip_ratio=1.40 / aq=1:1.00
  31. Language                                 : English
  32. Default                                  : No
  33. Forced                                   : No
  34. Color range                              : Limited
  35. Color primaries                          : BT.709
  36. Transfer characteristics                 : BT.709
  37. Matrix coefficients                      : BT.709
  38. Original source medium                   : Blu-ray
  39. Audio
  40. ID                                       : 2
  41. ID in the original source medium         : 4353 (0x1101)
  42. Format                                   : DTS XLL
  43. Format/Info                              : Digital Theater Systems
  44. Commercial name                          : DTS-HD Master Audio
  45. Codec ID                                 : A_DTS
  46. Duration                                 : 1 h 35 min
  47. Bit rate mode                            : Variable
  48. Bit rate                                 : 2 335 kb/s
  49. Channel(s)                               : 6 channels
  50. Channel layout                           : C L R Ls Rs LFE
  51. Sampling rate                            : 48.0 kHz
  52. Frame rate                               : 93.750 FPS (512 SPF)
  53. Bit depth                                : 16 bits
  54. Compression mode                         : Lossless
  55. Stream size                              : 1.56 GiB (10%)
  56. Title                                    : Peace.2019.1080p.BluRay.REMUX.AVC.DTS-HD.MA.5.1-FGT
  57. Language                                 : English
  58. Default                                  : Yes
  59. Forced                                   : No
  60. Original source medium                   : Blu-ray
  61. Text
  62. ID                                       : 3
  63. Format                                   : UTF-8
  64. Codec ID                                 : S_TEXT/UTF8
  65. Codec ID/Info                            : UTF-8 Plain Text
  66. Duration                                 : 1 h 29 min
  67. Bit rate                                 : 47 b/s
  68. Count of elements                        : 1174
  69. Stream size                              : 31.4 KiB (0%)
  70. Title                                    : English-SRT
  71. Language                                 : English
  72. Default                                  : Yes
  73. Forced                                   : No
  74. Menu
  75. 00:00:00.000                             : de:Chapter 01
  76. 00:11:20.262                             : de:Chapter 02
  77. 00:23:53.974                             : de:Chapter 03
  78. 00:35:35.633                             : de:Chapter 04
  79. 00:47:58.375                             : de:Chapter 05
  80. 01:01:38.653                             : de:Chapter 06
  81. 01:11:38.961                             : de:Chapter 07
  82. 01:22:37.118                             : de:Chapter 08
复制代码





                                       
                                       

                                       
                                       
                                       




回复

使用道具 举报

懒得打字嘛,点击右侧快捷回复 【右侧内容,后台自定义】
您需要登录后才可以回帖 登录 | 立即加入

本版积分规则

Archiver|小黑屋| 蓝光电影网 |网站地图

Copyright © 2021 Comsenz Inc. Powered by 蓝光电影网

蓝光电影网

本站内容由用户自主分享和转载自互联网,转载目的在于传递更多信息,并不代表本网赞同其观点和对其真实性负责。

如有侵权、违反国家法律政策行为,请联系我们,我们会第一时间及时清除和处理!

举报反馈邮箱:[email protected]

快速回复 返回顶部 返回列表