找回密码

蓝光电影网

查看: 12|回复: 0

[动作] 钢铁侠3/钢铁人3 Iron.Man.3.2013.REMASTERED.1080p.BluRay.x264.DTS-HD.MA.7.1-SWTYBLZ 15.27GB

[复制链接]
蓝光币
515
发表于 2019-8-10 04:49:52 | 显示全部楼层 |阅读模式
[img]https://img1.doubanio.com/view/photo/l_ratio_poster/public/p1955027201.jpg[img]
◎译  名 钢铁侠3 / 钢铁人3(台) / 铁人3 / 铁甲奇侠3(港)
◎片  名 Iron Man 3
◎年  代 2013
◎产  地 美国 / 中国大陆
◎类  别 行动 / 科幻
◎语  言 英语 / 汉语普通话
◎上映日期 2013-04-18(伦敦首映) / 2013-05-01(中国大陆) / 2013-05-03(美国)
◎IMDb评分  7.2/10 from 700775 users
◎IMDb链接  http://www.imdb.com/title/tt1300854
◎豆瓣评分 7.8/10 from 331644 users
◎豆瓣链接 https://movie.douban.com/subject/3231742/
◎片  长 134分钟(中国大陆)
◎导  演 沙恩·布莱克 Shane Black
◎编  剧 沙恩·布莱克 Shane Black / 德鲁·皮尔斯 Drew Pearce / 斯坦·李 Stan Lee / 唐·赫克 Don Heck / 拉里·利伯 Larry Lieber / 杰克·科比 Jack Kirby
◎主  演 小罗伯特·唐尼 Robert Downey Jr.
       盖·皮尔斯 Guy Pearce
       格温妮斯·帕特洛 Gwyneth Paltrow
       本·金斯利 Ben Kingsley
       唐·钱德尔 Don Cheadle
       保罗·贝坦尼 Paul Bettany
       丽贝卡·豪尔 Rebecca Hall
       乔恩·费儒 Jon Favreau
       威廉姆·赛德勒 William Sadler
       詹姆斯·戴尔 James Badge Dale
       伊芳·齐玛 Yvonne Zima
       泰·辛普金斯 Ty Simpkins
       阿什利·汉弥尔顿 Ashley Hamilton
       王学圻 Xueqi Wang
       范冰冰 Bingbing Fan

◎标  签 科幻 | 钢铁侠 | 美国 | 超级豪杰 | 行动 | MARVEL | 2013 | 漫画改编
◎简  介  
  自纽约事务以来,托尼·斯塔克(小罗伯特·唐尼 Robert Downey Jr. 饰)为史无前例的焦虑症所困扰。他疯狂投入钢铁侠升级版的研发,为此夜以继日,甚至疏忽了女友佩珀·波茨(格温妮斯·帕特洛 Gwyneth Paltrow 饰)的感受。与此同时,污名昭著的可骇头子曼达林(本·金斯利 Ben Kingsley 饰)制造了连续串的爆炸攻击事务,托尼昔时最虔诚的保镳即在比来的一次攻击中身负重伤。未过量久,托尼、佩珀以及曾与他有过一面之缘的女动物学家玛雅(丽贝卡·豪尔 Rebecca Hall 饰)在家中遭到狠恶的炮火攻击,几近丧命,而这一切似乎都与22年前那名偶然相逢的科学家阿尔德里奇·基连(盖·皮尔斯 Guy Pearce 饰)及其终极生物的研讨有关。
  即使有紧密先辈的铠甲护身,也没法排解发自心底的焦虑。被击碎一切的托尼,若何穿越来自天堂的熊熊猛火……
◎获奖情况  
  第86届奥斯卡金像奖(2014)
  最好视觉结果(提名) 盖伊·威廉斯 / 克里斯托弗·汤森 / Erik Nash / 丹尼尔·萨迪克
  第23届MTV电影奖(2014)
  MTV电影奖 最好客串表演(提名) 琼·里弗斯
  MTV电影奖 最好豪杰形象(提名) 小罗伯特·唐尼
  第61届美国音效剪辑协会奖(2014)
  金卷轴奖 最好电影音效剪辑(提名) John T. Cucci / Charlie Campagna / 丹·奥康奈尔 / Tim Walston / Alan Rankin / Karen Vassar / 安德鲁·克里斯托法罗 / Ann Scibelli / Shannon Mills / 马克·P·施特金格尔
  第12届美国视觉结果协会奖(2014)
  最好殊效电影视觉结果(提名) 布莱恩·吉尔 / 盖伊·威廉斯 / Mark G. Soper / 克里斯托弗·汤森
  最好真人电影CG布景(提名) John Stevenson-Galvin
  最好电影虚拟摄影(提名) Thelvin Cabezas
  最好电影视觉结果分解(提名) Justin van der Lek / Stefano Trivelli
  第50届美国声音结果协会奖(2014)
  真人电影最好音效(提名) Joel Iwataki / Mike Prestwood Smith / Michael Keller
  第19届美国批评家挑选电影奖(2014)
  最好行动片(提名)
  行动片最好男配角(提名) 小罗伯特·唐尼
  行动片最好女配角(提名) 格温妮斯·帕特洛
  最好视觉结果(提名)
  第17届好莱坞电影奖(2013)
  年度电影(提名) 沙恩·布莱克
  第15届美国青少年挑选奖(2013)
  最好行动片
  最好行动片男演员 小罗伯特·唐尼
  最好行动片女演员(提名) 格温妮斯·帕特洛
  最好科幻/奇异电影(提名)
  最好科幻/奇异电影男演员(提名) 小罗伯特·唐尼
  最好科幻/奇异电影女演员(提名) 格温妮斯·帕特洛
  最好电影反派(提名) 本·金斯利
  最好银幕拍档(提名) 小罗伯特·唐尼 / 唐·钱德尔
  第4届豆瓣电影鑫像奖(2014)
  鑫豆单元 最好科幻/行动片(提名)
  1. Video
  2. ID                                       : 1
  3. Format                                   : AVC
  4. Format/Info                              : Advanced Video Codec
  5. Format profile                           : [email protected]
  6. Format settings                          : CABAC / 5 Ref Frames
  7. Format settings, CABAC                   : Yes
  8. Format settings, Reference frames        : 5 frames
  9. Codec ID                                 : V_MPEG4/ISO/AVC
  10. Duration                                 : 2 h 10 min
  11. Bit rate                                 : 13.0 Mb/s
  12. Width                                    : 1 920 pixels
  13. Height                                   : 800 pixels
  14. Display aspect ratio                     : 2.40:1
  15. Frame rate mode                          : Constant
  16. Frame rate                               : 23.976 (24000/1001) FPS
  17. Color space                              : YUV
  18. Chroma subsampling                       : 4:2:0
  19. Bit depth                                : 8 bits
  20. Scan type                                : Progressive
  21. Bits/(Pixel*Frame)                       : 0.354
  22. Stream size                              : 11.9 GiB (78%)
  23. Title                                    : Iron.Man.3.2013.REMASTERED.1080p.BluRay.x264.DTS-HD.MA.7.1-SWTYBLZ
  24. Writing library                          : x264 core 157 r2935 545de2f
  25. Encoding settings                        : cabac=1 / ref=5 / deblock=1:-1:-1 / analyse=0x3:0x133 / me=umh / subme=10 / psy=1 / psy_rd=1.00:0.15 / mixed_ref=1 / me_range=48 / chroma_me=1 / trellis=2 / 8x8dct=1 / cqm=0 / deadzone=21,11 / fast_pskip=1 / chroma_qp_offset=-3 / threads=25 / lookahead_threads=4 / sliced_threads=0 / nr=0 / decimate=0 / interlaced=0 / bluray_compat=0 / constrained_intra=0 / bframes=8 / b_pyramid=2 / b_adapt=2 / b_bias=0 / direct=3 / weightb=1 / open_gop=0 / weightp=2 / keyint=250 / keyint_min=23 / scenecut=40 / intra_refresh=0 / rc_lookahead=60 / rc=crf / mbtree=1 / crf=12.0 / qcomp=0.60 / qpmin=0 / qpmax=69 / qpstep=4 / ip_ratio=1.40 / aq=1:1.00
  26. Default                                  : Yes
  27. Forced                                   : No
  28. Audio
  29. ID                                       : 2
  30. Format                                   : DTS XLL
  31. Format/Info                              : Digital Theater Systems
  32. Commercial name                          : DTS-HD Master Audio
  33. Codec ID                                 : A_DTS
  34. Duration                                 : 2 h 10 min
  35. Bit rate mode                            : Variable
  36. Bit rate                                 : 3 597 kb/s
  37. Channel(s)                               : 8 channels
  38. Channel layout                           : C L R LFE Lb Rb Lss Rss
  39. Sampling rate                            : 48.0 kHz
  40. Frame rate                               : 93.750 FPS (512 SPF)
  41. Bit depth                                : 24 bits
  42. Compression mode                         : Lossless
  43. Stream size                              : 3.28 GiB (21%)
  44. Title                                    : Iron.Man.3.2013.REMASTERED.1080p.BluRay.x264.DTS-HD.MA.7.1-SWTYBLZ
  45. Language                                 : English
  46. Default                                  : No
  47. Forced                                   : No
  48. Text #1
  49. ID                                       : 3
  50. Format                                   : UTF-8
  51. Codec ID                                 : S_TEXT/UTF8
  52. Codec ID/Info                            : UTF-8 Plain Text
  53. Duration                                 : 2 h 10 min
  54. Bit rate                                 : 58 b/s
  55. Count of elements                        : 1733
  56. Stream size                              : 56.0 KiB (0%)
  57. Title                                    : English-SRT
  58. Language                                 : English
  59. Default                                  : Yes
  60. Forced                                   : No
  61. Text #2
  62. ID                                       : 4
  63. Format                                   : PGS
  64. Muxing mode                              : zlib
  65. Codec ID                                 : S_HDMV/PGS
  66. Codec ID/Info                            : Picture based subtitle format used on BDs/HD-DVDs
  67. Duration                                 : 2 h 10 min
  68. Bit rate                                 : 36.1 kb/s
  69. Count of elements                        : 3480
  70. Stream size                              : 33.5 MiB (0%)
  71. Title                                    : English-PGS
  72. Language                                 : English
  73. Default                                  : No
  74. Forced                                   : No
  75. Text #3
  76. ID                                       : 5
  77. Format                                   : PGS
  78. Muxing mode                              : zlib
  79. Codec ID                                 : S_HDMV/PGS
  80. Codec ID/Info                            : Picture based subtitle format used on BDs/HD-DVDs
  81. Duration                                 : 2 h 10 min
  82. Bit rate                                 : 53.2 kb/s
  83. Count of elements                        : 4336
  84. Stream size                              : 49.4 MiB (0%)
  85. Title                                    : English-SDH-PGS
  86. Language                                 : English
  87. Default                                  : No
  88. Forced                                   : No
  89. Text #4
  90. ID                                       : 6
  91. Format                                   : PGS
  92. Muxing mode                              : zlib
  93. Codec ID                                 : S_HDMV/PGS
  94. Codec ID/Info                            : Picture based subtitle format used on BDs/HD-DVDs
  95. Duration                                 : 2 h 10 min
  96. Bit rate                                 : 42.6 kb/s
  97. Count of elements                        : 3544
  98. Stream size                              : 39.7 MiB (0%)
  99. Title                                    : French-PGS
  100. Language                                 : French
  101. Default                                  : No
  102. Forced                                   : No
  103. Text #5
  104. ID                                       : 7
  105. Format                                   : PGS
  106. Muxing mode                              : zlib
  107. Codec ID                                 : S_HDMV/PGS
  108. Codec ID/Info                            : Picture based subtitle format used on BDs/HD-DVDs
  109. Duration                                 : 2 h 10 min
  110. Bit rate                                 : 34.3 kb/s
  111. Count of elements                        : 3414
  112. Stream size                              : 31.9 MiB (0%)
  113. Title                                    : French-PGS
  114. Language                                 : French
  115. Default                                  : No
  116. Forced                                   : No
  117. Text #6
  118. ID                                       : 8
  119. Format                                   : PGS
  120. Muxing mode                              : zlib
  121. Codec ID                                 : S_HDMV/PGS
  122. Codec ID/Info                            : Picture based subtitle format used on BDs/HD-DVDs
  123. Duration                                 : 2 h 10 min
  124. Bit rate                                 : 41.5 kb/s
  125. Count of elements                        : 3448
  126. Stream size                              : 38.7 MiB (0%)
  127. Title                                    : Italian-PGS
  128. Language                                 : Italian
  129. Default                                  : No
  130. Forced                                   : No
  131. Text #7
  132. ID                                       : 9
  133. Format                                   : PGS
  134. Muxing mode                              : zlib
  135. Codec ID                                 : S_HDMV/PGS
  136. Codec ID/Info                            : Picture based subtitle format used on BDs/HD-DVDs
  137. Duration                                 : 2 h 10 min
  138. Bit rate                                 : 20.0 kb/s
  139. Count of elements                        : 2892
  140. Stream size                              : 18.7 MiB (0%)
  141. Title                                    : Japanese-PGS
  142. Language                                 : Japanese
  143. Default                                  : No
  144. Forced                                   : No
  145. Text #8
  146. ID                                       : 10
  147. Format                                   : PGS
  148. Muxing mode                              : zlib
  149. Codec ID                                 : S_HDMV/PGS
  150. Codec ID/Info                            : Picture based subtitle format used on BDs/HD-DVDs
  151. Duration                                 : 2 h 10 min
  152. Bit rate                                 : 38.9 kb/s
  153. Count of elements                        : 3454
  154. Stream size                              : 36.3 MiB (0%)
  155. Title                                    : Norwegian-PGS
  156. Language                                 : Norwegian
  157. Default                                  : No
  158. Forced                                   : No
  159. Text #9
  160. ID                                       : 11
  161. Format                                   : PGS
  162. Muxing mode                              : zlib
  163. Codec ID                                 : S_HDMV/PGS
  164. Codec ID/Info                            : Picture based subtitle format used on BDs/HD-DVDs
  165. Duration                                 : 2 h 10 min
  166. Bit rate                                 : 33.2 kb/s
  167. Count of elements                        : 3434
  168. Stream size                              : 30.9 MiB (0%)
  169. Title                                    : Spanish-PGS
  170. Language                                 : Spanish
  171. Default                                  : No
  172. Forced                                   : No
  173. Text #10
  174. ID                                       : 12
  175. Format                                   : PGS
  176. Muxing mode                              : zlib
  177. Codec ID                                 : S_HDMV/PGS
  178. Codec ID/Info                            : Picture based subtitle format used on BDs/HD-DVDs
  179. Duration                                 : 2 h 10 min
  180. Bit rate                                 : 30.9 kb/s
  181. Count of elements                        : 2098
  182. Stream size                              : 28.8 MiB (0%)
  183. Title                                    : Swedish-PGS
  184. Language                                 : Swedish
  185. Default                                  : No
  186. Forced                                   : No
  187. Menu
  188. 00:00:00.000                             : en:Chapter 01
  189. 00:04:52.751                             : en:Chapter 02
  190. 00:07:55.433                             : en:Chapter 03
  191. 00:12:12.440                             : en:Chapter 04
  192. 00:19:04.101                             : en:Chapter 05
  193. 00:23:47.885                             : en:Chapter 06
  194. 00:29:47.703                             : en:Chapter 07
  195. 00:39:46.384                             : en:Chapter 08
  196. 00:45:56.045                             : en:Chapter 09
  197. 00:59:19.639                             : en:Chapter 10
  198. 01:01:56.922                             : en:Chapter 11
  199. 01:09:24.452                             : en:Chapter 12
  200. 01:18:41.508                             : en:Chapter 13
  201. 01:23:52.945                             : en:Chapter 14
  202. 01:37:55.995                             : en:Chapter 15
  203. 01:56:18.305                             : en:Chapter 16
  204. 01:59:38.755                             : en:Chapter 17
复制代码






                                       
                                       

                                       
                                       
                                       




回复

使用道具 举报

懒得打字嘛,点击右侧快捷回复 【右侧内容,后台自定义】
您需要登录后才可以回帖 登录 | 立即加入

本版积分规则

Archiver|小黑屋| 蓝光电影网 |网站地图

Copyright © 2021 Comsenz Inc. Powered by 蓝光电影网

蓝光电影网

本站内容由用户自主分享和转载自互联网,转载目的在于传递更多信息,并不代表本网赞同其观点和对其真实性负责。

如有侵权、违反国家法律政策行为,请联系我们,我们会第一时间及时清除和处理!

举报反馈邮箱:[email protected]

快速回复 返回顶部 返回列表