找回密码

蓝光电影网

查看: 21|回复: 0

[剧情] 旧金山的最后一个黑人 The.Last.Black.Man.in.San.Francisco.2019.1080p.BluRay.REMUX.AVC.DTS-HD.MA.5.1-FGT 31.92GB

[复制链接]
蓝光币
515
发表于 2019-9-6 10:57:22 | 显示全部楼层 |阅读模式


◎译  名 旧金山的最初一个黑人
◎片  名 The Last Black Man in San Francisco
◎年  代 2019
◎产  地 美国
◎类  别 剧情
◎语  言 英语
◎上映日期 2019-01-26(圣丹斯电影节) / 2019-06-14(美国)
◎IMDb评分  7.8/10 from 2128 users
◎IMDb链接  http://www.imdb.com/title/tt4353250
◎豆瓣评分 7.1/10 from 142 users
◎豆瓣链接 https://movie.douban.com/subject/30211824/
◎片  长 120分钟
◎导  演 乔·塔尔博 Joe Talbot
◎编  剧 乔·塔尔博 Joe Talbot / Jimmie Fails / Rob Richert
◎主  演 Jimmie Fails
       乔纳森·梅杰斯 Jonathan Majors
       丹尼·格洛弗 Danny Glover
       蒂琪娜·阿诺 Tichina Arnold
       罗布·摩根 Rob Morgan
       迈克·艾普斯 Mike Epps
       芬·维特洛克 Finn Wittrock
       索拉·伯奇 Thora Birch
       托尼娅·格兰茨 Tonya Glanz
       迈克尔·J·格温 Michael J. Gwynn
       卡茜·亨德利 Cassie Hendry
       约翰·帕森斯 John Parsons
       Willie Hen
       Jamal Trulove
       Jello Biafra
       Michael Andrew Reed

◎标  签 美国 | 种族 | 自力 | 剧情 | 2019 | 美国电影 | Sundance19 | 乔·塔尔博
◎简  介  
  故事围绕旧金山最初一个,也是行将消失的黑人社区展开。一个黑人男人(吉米·凡尔斯饰)和他的朋友(乔纳森·梅杰斯饰)为找回属于家属的归属感,他们决议买部属于自己家属的屋子。
◎获奖情况  
  第35届圣丹斯电影节(2019)
  导演奖 剧情片 乔·塔尔博
  第72届洛迦诺国际电影节(2019)
  金豹奖(提名) 乔·塔尔博
  1. Video
  2. ID                                       : 1
  3. Format                                   : AVC
  4. Format/Info                              : Advanced Video Codec
  5. Format profile                           : [email protected]
  6. Format settings                          : CABAC / 4 Ref Frames
  7. Format settings, CABAC                   : Yes
  8. Format settings, Reference frames        : 4 frames
  9. Codec ID                                 : V_MPEG4/ISO/AVC
  10. Duration                                 : 2 h 0 min
  11. Bit rate mode                            : Variable
  12. Bit rate                                 : 34.5 Mb/s
  13. Maximum bit rate                         : 37.0 Mb/s
  14. Width                                    : 1 920 pixels
  15. Height                                   : 1 080 pixels
  16. Display aspect ratio                     : 16:9
  17. Frame rate mode                          : Constant
  18. Frame rate                               : 23.976 (24000/1001) FPS
  19. Color space                              : YUV
  20. Chroma subsampling                       : 4:2:0
  21. Bit depth                                : 8 bits
  22. Scan type                                : Progressive
  23. Bits/(Pixel*Frame)                       : 0.694
  24. Stream size                              : 29.1 GiB (91%)
  25. Title                                    : The.Last.Black.Man.in.San.Francisco.2019.1080p.BluRay.REMUX.AVC.DTS-HD.MA.5.1-FGT
  26. Language                                 : English
  27. Default                                  : No
  28. Forced                                   : No
  29. Audio #1
  30. ID                                       : 2
  31. Format                                   : DTS XLL
  32. Format/Info                              : Digital Theater Systems
  33. Commercial name                          : DTS-HD Master Audio
  34. Codec ID                                 : A_DTS
  35. Duration                                 : 2 h 0 min
  36. Bit rate mode                            : Variable
  37. Bit rate                                 : 3 126 kb/s
  38. Channel(s)                               : 6 channels
  39. Channel layout                           : C L R Ls Rs LFE
  40. Sampling rate                            : 48.0 kHz
  41. Frame rate                               : 93.750 FPS (512 SPF)
  42. Bit depth                                : 24 bits
  43. Compression mode                         : Lossless
  44. Stream size                              : 2.64 GiB (8%)
  45. Title                                    : The.Last.Black.Man.in.San.Francisco.2019.1080p.BluRay.REMUX.AVC.DTS-HD.MA.5.1-FGT
  46. Language                                 : English
  47. Default                                  : Yes
  48. Forced                                   : No
  49. Audio #2
  50. ID                                       : 3
  51. Format                                   : AC-3
  52. Format/Info                              : Audio Coding 3
  53. Commercial name                          : Dolby Digital
  54. Codec ID                                 : A_AC3
  55. Duration                                 : 2 h 0 min
  56. Bit rate mode                            : Constant
  57. Bit rate                                 : 192 kb/s
  58. Channel(s)                               : 2 channels
  59. Channel layout                           : L R
  60. Sampling rate                            : 48.0 kHz
  61. Frame rate                               : 31.250 FPS (1536 SPF)
  62. Bit depth                                : 16 bits
  63. Compression mode                         : Lossy
  64. Stream size                              : 166 MiB (1%)
  65. Title                                    : The.Last.Black.Man.in.San.Francisco.2019.1080p.BluRay.REMUX.AVC.DTS-HD.MA.5.1-FGT
  66. Language                                 : English
  67. Service kind                             : Complete Main
  68. Default                                  : No
  69. Forced                                   : No
  70. Text #1
  71. ID                                       : 4
  72. Format                                   : PGS
  73. Muxing mode                              : zlib
  74. Codec ID                                 : S_HDMV/PGS
  75. Codec ID/Info                            : Picture based subtitle format used on BDs/HD-DVDs
  76. Duration                                 : 1 h 56 min
  77. Bit rate                                 : 39.2 kb/s
  78. Count of elements                        : 3247
  79. Stream size                              : 32.6 MiB (0%)
  80. Title                                    : English-PGS
  81. Language                                 : English
  82. Default                                  : Yes
  83. Forced                                   : No
  84. Text #2
  85. ID                                       : 5
  86. Format                                   : PGS
  87. Muxing mode                              : zlib
  88. Codec ID                                 : S_HDMV/PGS
  89. Codec ID/Info                            : Picture based subtitle format used on BDs/HD-DVDs
  90. Duration                                 : 1 h 59 min
  91. Bit rate                                 : 28.2 kb/s
  92. Count of elements                        : 2783
  93. Stream size                              : 24.1 MiB (0%)
  94. Title                                    : Spanish-PGS
  95. Language                                 : Spanish
  96. Default                                  : No
  97. Forced                                   : No
  98. Menu
  99. 00:00:00.000                             : en:Chapter 01
  100. 00:06:23.132                             : en:Chapter 02
  101. 00:14:36.208                             : en:Chapter 03
  102. 00:22:47.991                             : en:Chapter 04
  103. 00:30:48.054                             : en:Chapter 05
  104. 00:37:30.790                             : en:Chapter 06
  105. 00:44:20.908                             : en:Chapter 07
  106. 00:51:30.295                             : en:Chapter 08
  107. 00:58:04.189                             : en:Chapter 09
  108. 01:05:17.622                             : en:Chapter 10
  109. 01:12:57.915                             : en:Chapter 11
  110. 01:21:22.502                             : en:Chapter 12
  111. 01:27:28.326                             : en:Chapter 13
  112. 01:39:44.144                             : en:Chapter 14
  113. 01:45:34.244                             : en:Chapter 15
  114. 01:50:11.104                             : en:Chapter 16
复制代码






                                       
                                       

                                       
                                       
                                       




回复

使用道具 举报

懒得打字嘛,点击右侧快捷回复 【右侧内容,后台自定义】
您需要登录后才可以回帖 登录 | 立即加入

本版积分规则

Archiver|小黑屋| 蓝光电影网 |网站地图

Copyright © 2021 Comsenz Inc. Powered by 蓝光电影网

蓝光电影网

本站内容由用户自主分享和转载自互联网,转载目的在于传递更多信息,并不代表本网赞同其观点和对其真实性负责。

如有侵权、违反国家法律政策行为,请联系我们,我们会第一时间及时清除和处理!

举报反馈邮箱:[email protected]

快速回复 返回顶部 返回列表