找回密码

蓝光电影网

查看: 9|回复: 0

[剧情] 脑中蜜 Head.Full.of.Honey.2018.1080p.BluRay.REMUX.AVC.DTS-HD.MA.5.1-FGT 32.97GB

[复制链接]
蓝光币
511
发表于 2019-9-6 10:55:19 | 显示全部楼层 |阅读模式


◎译  名 脑中蜜 / Honey in the Head
◎片  名 Head Full of Honey
◎年  代 2018
◎产  地 德国 / 美国
◎类  别 剧情
◎语  言 英语
◎上映日期 2018-11-30(纽约/洛杉矶点映)
◎IMDb评分  3.1/10 from 526 users
◎IMDb链接  http://www.imdb.com/title/tt5836706
◎豆瓣评分 0/10 from 0 users
◎豆瓣链接 https://movie.douban.com/subject/30176405/
◎片  长 139分钟
◎导  演 蒂尔·施威格 Til Schweiger
◎编  剧 蒂尔·施威格 Til Schweiger / 乔乔·莫伊斯 Jojo Moyes
◎主  演 尼克·诺特 Nick Nolte
       马特·狄龙 Matt Dillon
       艾米莉·莫迪默 Emily Mortimer
       杰奎琳·比塞特 Jacqueline Bisset
       埃里克·罗伯茨 Eric Roberts
       克莱尔·弗兰妮 Claire Forlani
       蒂尔·施威格 Til Schweiger
       科斯塔·罗宁 Costa Ronin
       麦斯米兰·贝佛特 Maximilian Befort
       阿利斯泰尔·布拉默 Alistair Brammer
       蒂姆·维尔德 Tim Wilde
       Murali Perumal

◎标  签 德国 | 老年 | 美国 | 家庭 | 剧情 | 笑剧 | 2018 | 烂片
◎简  介  
  华纳肯定尼克·诺特、马特·狄龙出演的美版[脑中蜜]定档颁奖季,将于下月30日在纽约、洛杉矶小范围开画。2014年德国影片[脑中蜜]由蒂尔·施威格自编自导自演,美版照旧由施威格执导,编剧乔乔·莫伊斯([碰见你之前]),卡司包括埃里克·罗伯茨、艾米莉·莫迪默、克莱尔·弗兰妮、杰奎琳·比塞特。故事围绕一个身患阿尔茨海默病症的老人带着孙女前往威尼斯展开。
  1. Video
  2. ID                                       : 1
  3. Format                                   : AVC
  4. Format/Info                              : Advanced Video Codec
  5. Format profile                           : [email protected]
  6. Format settings                          : CABAC / 3 Ref Frames
  7. Format settings, CABAC                   : Yes
  8. Format settings, Reference frames        : 3 frames
  9. Codec ID                                 : V_MPEG4/ISO/AVC
  10. Duration                                 : 2 h 11 min
  11. Bit rate mode                            : Variable
  12. Bit rate                                 : 33.9 Mb/s
  13. Maximum bit rate                         : 37.0 Mb/s
  14. Width                                    : 1 920 pixels
  15. Height                                   : 1 080 pixels
  16. Display aspect ratio                     : 16:9
  17. Frame rate mode                          : Constant
  18. Frame rate                               : 23.976 (24000/1001) FPS
  19. Color space                              : YUV
  20. Chroma subsampling                       : 4:2:0
  21. Bit depth                                : 8 bits
  22. Scan type                                : Progressive
  23. Bits/(Pixel*Frame)                       : 0.681
  24. Stream size                              : 31.2 GiB (95%)
  25. Title                                    : Head.Full.of.Honey.2018.1080p.BluRay.REMUX.AVC.DTS-HD.MA.5.1-FGT
  26. Language                                 : English
  27. Default                                  : No
  28. Forced                                   : No
  29. Audio
  30. ID                                       : 2
  31. Format                                   : DTS XLL
  32. Format/Info                              : Digital Theater Systems
  33. Commercial name                          : DTS-HD Master Audio
  34. Codec ID                                 : A_DTS
  35. Duration                                 : 2 h 11 min
  36. Bit rate mode                            : Variable
  37. Bit rate                                 : 1 922 kb/s
  38. Channel(s)                               : 6 channels
  39. Channel layout                           : C L R Ls Rs LFE
  40. Sampling rate                            : 48.0 kHz
  41. Frame rate                               : 93.750 FPS (512 SPF)
  42. Bit depth                                : 16 bits
  43. Compression mode                         : Lossless
  44. Stream size                              : 1.77 GiB (5%)
  45. Title                                    : Head.Full.of.Honey.2018.1080p.BluRay.REMUX.AVC.DTS-HD.MA.5.1-FGT
  46. Language                                 : English
  47. Default                                  : Yes
  48. Forced                                   : No
  49. Menu
  50. 00:00:00.000                             : en:Chapter 01
  51. 00:08:39.685                             : en:Chapter 02
  52. 00:17:42.352                             : en:Chapter 03
  53. 00:29:21.092                             : en:Chapter 04
  54. 00:36:42.366                             : en:Chapter 05
  55. 00:51:57.739                             : en:Chapter 06
  56. 01:01:18.633                             : en:Chapter 07
  57. 01:11:59.940                             : en:Chapter 08
  58. 01:23:11.319                             : en:Chapter 09
  59. 01:37:06.737                             : en:Chapter 10
  60. 01:47:01.373                             : en:Chapter 11
  61. 01:56:37.031                             : en:Chapter 12
复制代码






                                       
                                       

                                       
                                       
                                       




回复

使用道具 举报

懒得打字嘛,点击右侧快捷回复 【右侧内容,后台自定义】
您需要登录后才可以回帖 登录 | 立即加入

本版积分规则

Archiver|小黑屋| 蓝光电影网 |网站地图

Copyright © 2021 Comsenz Inc. Powered by 蓝光电影网

蓝光电影网

本站内容由用户自主分享和转载自互联网,转载目的在于传递更多信息,并不代表本网赞同其观点和对其真实性负责。

如有侵权、违反国家法律政策行为,请联系我们,我们会第一时间及时清除和处理!

举报反馈邮箱:[email protected]

快速回复 返回顶部 返回列表