找回密码

蓝光电影网

查看: 7|回复: 0

[其他] 极寒之蓝 The.Cold.Blue.2019.1080p.BluRay.x264.DTS-WiLDCAT 6.53GB

[复制链接]
蓝光币
515
发表于 2020-9-21 19:33:03 | 显示全部楼层 |阅读模式


◎译  名 极寒之蓝
◎片  名 The Cold Blue
◎年  代 2018
◎产  地 美国
◎类  别 记载片
◎语  言 英语
◎上映日期 2018-06-17(AFI记载片电影节) / 2018-09-29(纽约电影节)
◎IMDb评分  7.6/10 from 591 users
◎IMDb链接  https://www.imdb.com/title/tt8693770/
◎豆瓣评分 7.8/10 from 77 users
◎豆瓣链接 https://movie.douban.com/subject/30337276/
◎片  长 72分钟
◎标  签 记载片 | 二战 | 美国 | HBO | 战争 | 2018 | Documentary | 空8军
◎简  介


  HBO Documentary Films拿下记载片《The Cold Blue》的美国电视版权,聚焦二战时代美国第八空军履行多项致命使命的故事,将在纽约电影节放映,明年6月播出。
  
  该片包括奥斯卡获奖导演威廉·惠勒拍摄的记载片《孟菲斯美男号》的修复版4K和新的镜头,1943年他前往欧洲记录正在停止的空战,并在B-17轰炸机上履行实战使命,时代他的一位摄影师被杀。一切这些彩色原片都是比来在国家档案馆的蕴藏室里发现的。
  
  第八空军壮盛期间是天下上最强大的空军,在1945年头战争的高峰期间,第八空军可以同时派出2000名轰炸机和1000名战役机,介入了二战的35万空军中有2.6万人壮烈牺牲。
  1. Video
  2. ID                                       : 1
  3. Format                                   : AVC
  4. Format/Info                              : Advanced Video Codec
  5. Format profile                           : [email protected]
  6. Format settings                          : CABAC / 4 Ref Frames
  7. Format settings, CABAC                   : Yes
  8. Format settings, Reference frames        : 4 frames
  9. Codec ID                                 : V_MPEG4/ISO/AVC
  10. Duration                                 : 1 h 13 min
  11. Bit rate                                 : 11.3 Mb/s
  12. Width                                    : 1 920 pixels
  13. Height                                   : 1 080 pixels
  14. Display aspect ratio                     : 16:9
  15. Frame rate mode                          : Constant
  16. Frame rate                               : 23.976 (24000/1001/189150) FPS
  17. Color space                              : YUV
  18. Chroma subsampling                       : 4:2:0
  19. Bit depth                                : 8 bits
  20. Scan type                                : Progressive
  21. Bits/(Pixel*Frame)                       : 0.227
  22. Stream size                              : 5.76 GiB (88%)
  23. Writing library                          : x264 core 157 r2935 545de2f
  24. Encoding settings                        : cabac=1 / ref=4 / deblock=1:-1:-1 / analyse=0x3:0x133 / me=umh / subme=9 / psy=1 / psy_rd=1.00:0.15 / mixed_ref=1 / me_range=16 / chroma_me=1 / trellis=2 / 8x8dct=1 / cqm=0 / deadzone=21,11 / fast_pskip=1 / chroma_qp_offset=-3 / threads=33 / lookahead_threads=3 / sliced_threads=0 / nr=0 / decimate=1 / interlaced=0 / bluray_compat=0 / constrained_intra=0 / bframes=3 / b_pyramid=2 / b_adapt=2 / b_bias=0 / direct=3 / weightb=1 / open_gop=0 / weightp=2 / keyint=240 / keyint_min=24 / scenecut=40 / intra_refresh=0 / rc_lookahead=72 / rc=crf / mbtree=1 / crf=17.0 / qcomp=0.60 / qpmin=0 / qpmax=69 / qpstep=4 / vbv_maxrate=62500 / vbv_bufsize=78125 / crf_max=0.0 / nal_hrd=none / filler=0 / ip_ratio=1.40 / aq=1:1.00
  25. Language                                 : English
  26. Default                                  : Yes
  27. Forced                                   : No
  28. Color range                              : Limited
  29. Color primaries                          : BT.709
  30. Transfer characteristics                 : BT.709
  31. Matrix coefficients                      : BT.709
  32. Audio
  33. ID                                       : 2
  34. Format                                   : DTS
  35. Format/Info                              : Digital Theater Systems
  36. Codec ID                                 : A_DTS
  37. Duration                                 : 1 h 13 min
  38. Bit rate mode                            : Constant
  39. Bit rate                                 : 1 509 kb/s
  40. Channel(s)                               : 6 channels
  41. Channel layout                           : C L R Ls Rs LFE
  42. Sampling rate                            : 48.0 kHz
  43. Frame rate                               : 93.750 FPS (512 SPF)
  44. Bit depth                                : 24 bits
  45. Compression mode                         : Lossy
  46. Stream size                              : 790 MiB (12%)
  47. Title                                    : DTS Digital Surround (3/2.1)
  48. Language                                 : English
  49. Default                                  : Yes
  50. Forced                                   : No
  51. Text
  52. ID                                       : 3
  53. Format                                   : UTF-8
  54. Codec ID                                 : S_TEXT/UTF8
  55. Codec ID/Info                            : UTF-8 Plain Text
  56. Duration                                 : 1 h 12 min
  57. Bit rate                                 : 48 b/s
  58. Count of elements                        : 744
  59. Stream size                              : 25.9 KiB (0%)
  60. Language                                 : English
  61. Default                                  : Yes
  62. Forced                                   : No
  63. Menu
  64. 00:00:00.000                             : :Chapter 1
  65. 00:07:53.807                             : :Chapter 2
  66. 00:14:08.848                             : :Chapter 3
  67. 00:19:55.861                             : :Chapter 4
  68. 00:26:42.935                             : :Chapter 5
  69. 00:33:59.371                             : :Chapter 6
  70. 00:41:45.169                             : :Chapter 7
  71. 00:49:04.275                             : :Chapter 8
  72. 00:57:14.097                             : :Chapter 9
  73. 01:03:47.824                             : :Chapter 10
复制代码






                                       
                                       

                                       
                                       
                                       




回复

使用道具 举报

懒得打字嘛,点击右侧快捷回复 【右侧内容,后台自定义】
您需要登录后才可以回帖 登录 | 立即加入

本版积分规则

Archiver|小黑屋| 蓝光电影网 |网站地图

Copyright © 2021 Comsenz Inc. Powered by 蓝光电影网

蓝光电影网

本站内容由用户自主分享和转载自互联网,转载目的在于传递更多信息,并不代表本网赞同其观点和对其真实性负责。

如有侵权、违反国家法律政策行为,请联系我们,我们会第一时间及时清除和处理!

举报反馈邮箱:[email protected]

快速回复 返回顶部 返回列表