找回密码

蓝光电影网

查看: 31|回复: 0

[动作] 最后的星空战士 The.Last.Starfighter.1984.REMASTERED.1080p.BluRay.REMUX.AVC.DTS-HD.MA.5.1-FGT 28.87GB

[复制链接]
蓝光币
519
发表于 2020-10-30 09:05:53 | 显示全部楼层 |阅读模式


◎译  名 最初的星空战士
◎片  名 The Last Starfighter
◎年  代 1984
◎产  地 美国
◎类  别 行动 / 科幻 / 家庭 / 奇异 / 冒险
◎语  言 英语
◎上映日期 1984-07-13(美国)
◎IMDb评分  6.8/10 from 37815 users
◎IMDb链接  https://www.imdb.com/title/tt0087597/
◎豆瓣评分 6.5/10 from 383 users
◎豆瓣链接 https://movie.douban.com/subject/1294456/
◎片  长 101 分钟
◎导  演 尼克·卡斯特尔 Nick Castle
◎主  演 兰斯·盖斯特 Lance Guest
       丹·奥赫里奇 Dan O'Herlihy
       凯瑟琳·玛丽·斯图尔特 Catherine Mary Stewart
       芭芭拉·博松 Barbara Bosson
       诺曼·斯诺 Norman Snow
       梅格·怀利 Meg Wyllie
◎标  签 科幻 | 美国 | 1984 | 美国电影 | 科幻奇异 | 1980s | 最初的星空战士 | 电影
◎简  介


  艾利克斯(兰斯·盖斯特 Lance Guest 饰)生活在一个特别的家庭当中,脑筋非常灵活的他是一位电子游戏高手,可是虽然在游戏天下里艾利克斯可以气吞山河,但在现实中,他申请奖学金却遭到了黉舍的拒绝。
  
  一天,艾利克斯碰见了一位自称为游戏公司建造人的奥秘男人,就此打仗到了名为“斗士”的游戏,在稀里糊涂当中,艾利克斯成为了一位斗士,而且进修了一系列的战役技术。当艾利克斯回抵家中后,震动的发现自己的故里遭到了外星人的入侵,与此同时,在斗士的游戏天下中,他的同寅们也惨遭杀戮。现在,艾利克斯是唯逐一个可以抵抗外星人入侵的人了。
  1. Video
  2. ID                                       : 1
  3. ID in the original source medium         : 4113 (0x1011)
  4. Format                                   : AVC
  5. Format/Info                              : Advanced Video Codec
  6. Format profile                           : [email protected]
  7. Format settings                          : CABAC / 3 Ref Frames
  8. Format settings, CABAC                   : Yes
  9. Format settings, Reference frames        : 3 frames
  10. Codec ID                                 : V_MPEG4/ISO/AVC
  11. Duration                                 : 1 h 40 min
  12. Bit rate mode                            : Variable
  13. Bit rate                                 : 31.9 Mb/s
  14. Maximum bit rate                         : 38.0 Mb/s
  15. Width                                    : 1 920 pixels
  16. Height                                   : 1 080 pixels
  17. Display aspect ratio                     : 16:9
  18. Frame rate mode                          : Constant
  19. Frame rate                               : 23.976 (24000/1001/189150) FPS
  20. Color space                              : YUV
  21. Chroma subsampling                       : 4:2:0
  22. Bit depth                                : 8 bits
  23. Scan type                                : Progressive
  24. Bits/(Pixel*Frame)                       : 0.642
  25. Stream size                              : 22.4 GiB (78%)
  26. Title                                    : The.Last.Starfighter.1984.REMASTERED.1080p.BluRay.REMUX.AVC.DTS-HD.MA.5.1-FGT
  27. Language                                 : English
  28. Default                                  : No
  29. Forced                                   : No
  30. Color range                              : Limited
  31. Color primaries                          : BT.709
  32. Transfer characteristics                 : BT.709
  33. Matrix coefficients                      : BT.709
  34. Original source medium                   : Blu-ray
  35. Audio #1
  36. ID                                       : 2
  37. ID in the original source medium         : 4354 (0x1102)
  38. Format                                   : DTS XLL
  39. Format/Info                              : Digital Theater Systems
  40. Commercial name                          : DTS-HD Master Audio
  41. Codec ID                                 : A_DTS
  42. Duration                                 : 1 h 40 min
  43. Bit rate mode                            : Variable
  44. Bit rate                                 : 3 730 kb/s
  45. Channel(s)                               : 6 channels
  46. Channel layout                           : C L R Ls Rs LFE
  47. Sampling rate                            : 48.0 kHz
  48. Frame rate                               : 93.750 FPS (512 SPF)
  49. Bit depth                                : 24 bits
  50. Compression mode                         : Lossless
  51. Stream size                              : 2.62 GiB (9%)
  52. Title                                    : The.Last.Starfighter.1984.REMASTERED.1080p.BluRay.REMUX.AVC.DTS-HD.MA.5.1-FGT
  53. Language                                 : English
  54. Default                                  : Yes
  55. Forced                                   : No
  56. Original source medium                   : Blu-ray
  57. Audio #2
  58. ID                                       : 3
  59. ID in the original source medium         : 4352 (0x1100)
  60. Format                                   : DTS XLL
  61. Format/Info                              : Digital Theater Systems
  62. Commercial name                          : DTS-HD Master Audio
  63. Codec ID                                 : A_DTS
  64. Duration                                 : 1 h 40 min
  65. Bit rate mode                            : Variable
  66. Bit rate                                 : 1 557 kb/s
  67. Channel(s)                               : 2 channels
  68. Channel layout                           : L R
  69. Sampling rate                            : 48.0 kHz
  70. Frame rate                               : 93.750 FPS (512 SPF)
  71. Bit depth                                : 24 bits
  72. Compression mode                         : Lossless
  73. Stream size                              : 1.09 GiB (4%)
  74. Title                                    : The.Last.Starfighter.1984.REMASTERED.1080p.BluRay.REMUX.AVC.DTS-HD.MA.5.1-FGT
  75. Language                                 : English
  76. Default                                  : No
  77. Forced                                   : No
  78. Original source medium                   : Blu-ray
  79. Audio #3
  80. ID                                       : 4
  81. ID in the original source medium         : 4353 (0x1101)
  82. Format                                   : DTS XLL
  83. Format/Info                              : Digital Theater Systems
  84. Commercial name                          : DTS-HD Master Audio
  85. Codec ID                                 : A_DTS
  86. Duration                                 : 1 h 40 min
  87. Bit rate mode                            : Variable
  88. Bit rate                                 : 3 305 kb/s
  89. Channel(s)                               : 5 channels
  90. Channel layout                           : C L R LFE Cb
  91. Sampling rate                            : 48.0 kHz
  92. Frame rate                               : 93.750 FPS (512 SPF)
  93. Bit depth                                : 24 bits
  94. Compression mode                         : Lossless
  95. Stream size                              : 2.32 GiB (8%)
  96. Title                                    : The.Last.Starfighter.1984.REMASTERED.1080p.BluRay.REMUX.AVC.DTS-HD.MA.5.1-FGT
  97. Language                                 : English
  98. Default                                  : No
  99. Forced                                   : No
  100. Original source medium                   : Blu-ray
  101. Audio #4
  102. ID                                       : 5
  103. ID in the original source medium         : 4355 (0x1103)
  104. Format                                   : AC-3
  105. Format/Info                              : Audio Coding 3
  106. Commercial name                          : Dolby Digital
  107. Codec ID                                 : A_AC3
  108. Duration                                 : 1 h 40 min
  109. Bit rate mode                            : Constant
  110. Bit rate                                 : 192 kb/s
  111. Channel(s)                               : 2 channels
  112. Channel layout                           : L R
  113. Sampling rate                            : 48.0 kHz
  114. Frame rate                               : 31.250 FPS (1536 SPF)
  115. Compression mode                         : Lossy
  116. Stream size                              : 138 MiB (0%)
  117. Title                                    : The.Last.Starfighter.1984.REMASTERED.1080p.BluRay.REMUX.AVC.DTS-HD.MA.5.1-FGT
  118. Language                                 : English
  119. Service kind                             : Complete Main
  120. Default                                  : No
  121. Forced                                   : No
  122. Original source medium                   : Blu-ray
  123. Audio #5
  124. ID                                       : 6
  125. ID in the original source medium         : 4356 (0x1104)
  126. Format                                   : AC-3
  127. Format/Info                              : Audio Coding 3
  128. Commercial name                          : Dolby Digital
  129. Codec ID                                 : A_AC3
  130. Duration                                 : 1 h 40 min
  131. Bit rate mode                            : Constant
  132. Bit rate                                 : 192 kb/s
  133. Channel(s)                               : 2 channels
  134. Channel layout                           : L R
  135. Sampling rate                            : 48.0 kHz
  136. Frame rate                               : 31.250 FPS (1536 SPF)
  137. Compression mode                         : Lossy
  138. Stream size                              : 138 MiB (0%)
  139. Title                                    : The.Last.Starfighter.1984.REMASTERED.1080p.BluRay.REMUX.AVC.DTS-HD.MA.5.1-FGT
  140. Language                                 : English
  141. Service kind                             : Complete Main
  142. Default                                  : No
  143. Forced                                   : No
  144. Original source medium                   : Blu-ray
  145. Audio #6
  146. ID                                       : 7
  147. ID in the original source medium         : 4357 (0x1105)
  148. Format                                   : AC-3
  149. Format/Info                              : Audio Coding 3
  150. Commercial name                          : Dolby Digital
  151. Codec ID                                 : A_AC3
  152. Duration                                 : 1 h 40 min
  153. Bit rate mode                            : Constant
  154. Bit rate                                 : 192 kb/s
  155. Channel(s)                               : 2 channels
  156. Channel layout                           : L R
  157. Sampling rate                            : 48.0 kHz
  158. Frame rate                               : 31.250 FPS (1536 SPF)
  159. Compression mode                         : Lossy
  160. Stream size                              : 138 MiB (0%)
  161. Title                                    : The.Last.Starfighter.1984.REMASTERED.1080p.BluRay.REMUX.AVC.DTS-HD.MA.5.1-FGT
  162. Language                                 : English
  163. Service kind                             : Complete Main
  164. Default                                  : No
  165. Forced                                   : No
  166. Original source medium                   : Blu-ray
  167. Text #1
  168. ID                                       : 8
  169. Format                                   : UTF-8
  170. Codec ID                                 : S_TEXT/UTF8
  171. Codec ID/Info                            : UTF-8 Plain Text
  172. Duration                                 : 1 h 34 min
  173. Bit rate                                 : 51 b/s
  174. Count of elements                        : 988
  175. Stream size                              : 35.2 KiB (0%)
  176. Title                                    : English-SRT
  177. Language                                 : English
  178. Default                                  : Yes
  179. Forced                                   : No
  180. Text #2
  181. ID                                       : 9
  182. ID in the original source medium         : 4608 (0x1200)
  183. Format                                   : PGS
  184. Muxing mode                              : zlib
  185. Codec ID                                 : S_HDMV/PGS
  186. Codec ID/Info                            : Picture based subtitle format used on BDs/HD-DVDs
  187. Duration                                 : 1 h 34 min
  188. Bit rate                                 : 36.2 kb/s
  189. Count of elements                        : 2226
  190. Stream size                              : 24.4 MiB (0%)
  191. Title                                    : English--PGS
  192. Language                                 : English
  193. Default                                  : No
  194. Forced                                   : No
  195. Original source medium                   : Blu-ray
  196. Menu
  197. 00:00:00.000                             : en:Chapter 01
  198. 00:08:07.236                             : en:Chapter 02
  199. 00:18:03.540                             : en:Chapter 03
  200. 00:26:19.786                             : en:Chapter 04
  201. 00:35:43.724                             : en:Chapter 05
  202. 00:43:09.378                             : en:Chapter 06
  203. 00:48:40.751                             : en:Chapter 07
  204. 00:57:34.284                             : en:Chapter 08
  205. 01:07:34.467                             : en:Chapter 09
  206. 01:16:27.165                             : en:Chapter 10
  207. 01:26:00.655                             : en:Chapter 11
  208. 01:29:15.099                             : en:Chapter 12
复制代码






                                       
                                       

                                       
                                       
                                       




回复

使用道具 举报

懒得打字嘛,点击右侧快捷回复 【右侧内容,后台自定义】
您需要登录后才可以回帖 登录 | 立即加入

本版积分规则

Archiver|小黑屋| 蓝光电影网 |网站地图

Copyright © 2021 Comsenz Inc. Powered by 蓝光电影网

蓝光电影网

本站内容由用户自主分享和转载自互联网,转载目的在于传递更多信息,并不代表本网赞同其观点和对其真实性负责。

如有侵权、违反国家法律政策行为,请联系我们,我们会第一时间及时清除和处理!

举报反馈邮箱:[email protected]

快速回复 返回顶部 返回列表