找回密码

蓝光电影网

查看: 31|回复: 0

[剧情] 叛徒 The.Traitor.2019.ITALIAN.1080p.BluRay.REMUX.AVC.DTS-HD.MA.5.1-FGT 23.19GB

[复制链接]
蓝光币
733
发表于 2019-9-6 10:51:22 | 显示全部楼层 |阅读模式


◎译  名 叛徒 / The Traitor / Tommaso Buscetta
◎片  名 Il traditore
◎年  代 2019
◎产  地 意大利 / 法国 / 巴西 / 德国
◎类  别 剧情
◎语  言 意大利语
◎上映日期 2019-05-23(意大利/戛纳电影节)
◎IMDb评分  7.4/10 from 921 users
◎IMDb链接  http://www.imdb.com/title/tt7736478
◎豆瓣评分 7.7/10 from 696 users
◎豆瓣链接 https://movie.douban.com/subject/26892558/
◎片  长 135分钟
◎导  演 马可·贝洛基奥 Marco Bellocchio
◎编  剧 马可·贝洛基奥 Marco Bellocchio / 瓦利亚·桑泰拉 Valia Santella / 卢多维卡·兰波尔迪 Ludovica Rampoldi / 弗朗西斯·皮克罗 Francesco Piccolo
◎主  演 皮耶尔弗兰切斯科·法维诺 Pierfrancesco Favino
       马丽娅·费尔南达·康基多 Maria Fernanda Candido
       路易吉·洛·卡肖 Luigi Lo Cascio
       福斯托·鲁索·阿莱西 Fausto Russo Alesi
       尼诺·波尔齐奥 Nino Porzio
       Alessio Praticò
       Gabriele Arena
       Fabrizio Ferracane
       Jacopo Garfagnoli
       Patrick Simons
       Marco Gambino
       Calì Nicola
       Goffredo Maria Bruno
       Massimiliano Ubaldi
       Marilina Marino
       Nunzia Lo Presti

◎标  签 意大利 | 2019 | 黑帮 | 犯罪 | 意大利电影 | 戛纳/主比赛单元 | 戛纳 | 贝洛基奥
◎简  介  
  本片按照意大利实在事务改编而成。上世纪80年月早期,黑帮领袖多玛索·布西达从意大利移居巴西,但是远在意大利的自己的哥哥与孩子却相继被黑帮团伙杀戮。为了惩办凶手,他起头与意大利警方合作,在两方的不竭尽力下,多玛索·布西达不但捉住了杀戮自己亲人的幕后黑手,并将意大利千头万绪的黑帮团伙连根拔起……
◎获奖情况  
  第72届戛纳电影节(2019)
  主比赛单元 金棕榈奖(提名) 马可·贝洛基奥
  1. Video
  2. ID                                       : 1
  3. Format                                   : AVC
  4. Format/Info                              : Advanced Video Codec
  5. Format profile                           : [email protected]
  6. Format settings                          : CABAC / 4 Ref Frames
  7. Format settings, CABAC                   : Yes
  8. Format settings, Reference frames        : 4 frames
  9. Format settings, GOP                     : M=3, N=24
  10. Codec ID                                 : V_MPEG4/ISO/AVC
  11. Duration                                 : 2 h 31 min
  12. Bit rate mode                            : Variable
  13. Bit rate                                 : 20.0 Mb/s
  14. Maximum bit rate                         : 35.0 Mb/s
  15. Width                                    : 1 920 pixels
  16. Height                                   : 1 080 pixels
  17. Display aspect ratio                     : 16:9
  18. Frame rate mode                          : Constant
  19. Frame rate                               : 23.976 (24000/1001) FPS
  20. Standard                                 : NTSC
  21. Color space                              : YUV
  22. Chroma subsampling                       : 4:2:0
  23. Bit depth                                : 8 bits
  24. Scan type                                : Progressive
  25. Bits/(Pixel*Frame)                       : 0.402
  26. Stream size                              : 21.2 GiB (91%)
  27. Title                                    : The.Traitor.2019.ITALIAN.1080p.BluRay.REMUX.AVC.DTS-HD.MA.5.1-FGT
  28. Language                                 : Italian
  29. Default                                  : Yes
  30. Forced                                   : No
  31. Color range                              : Limited
  32. Color primaries                          : BT.709
  33. Transfer characteristics                 : BT.709
  34. Matrix coefficients                      : BT.709
  35. Audio
  36. ID                                       : 2
  37. Format                                   : DTS XLL
  38. Format/Info                              : Digital Theater Systems
  39. Commercial name                          : DTS-HD Master Audio
  40. Codec ID                                 : A_DTS
  41. Duration                                 : 2 h 31 min
  42. Bit rate mode                            : Variable
  43. Bit rate                                 : 1 870 kb/s
  44. Channel(s)                               : 6 channels
  45. Channel layout                           : C L R Ls Rs LFE
  46. Sampling rate                            : 48.0 kHz
  47. Frame rate                               : 93.750 FPS (512 SPF)
  48. Bit depth                                : 16 bits
  49. Compression mode                         : Lossless
  50. Stream size                              : 1.98 GiB (9%)
  51. Title                                    : The.Traitor.2019.ITALIAN.1080p.BluRay.REMUX.AVC.DTS-HD.MA.5.1-FGT
  52. Language                                 : Italian
  53. Default                                  : Yes
  54. Forced                                   : No
  55. Text #1
  56. ID                                       : 3
  57. Format                                   : PGS
  58. Muxing mode                              : zlib
  59. Codec ID                                 : S_HDMV/PGS
  60. Codec ID/Info                            : Picture based subtitle format used on BDs/HD-DVDs
  61. Duration                                 : 2 h 21 min
  62. Bit rate                                 : 34.9 kb/s
  63. Count of elements                        : 3024
  64. Stream size                              : 35.4 MiB (0%)
  65. Title                                    : English-PGS
  66. Language                                 : English
  67. Default                                  : Yes
  68. Forced                                   : No
  69. Text #2
  70. ID                                       : 4
  71. Format                                   : PGS
  72. Muxing mode                              : zlib
  73. Codec ID                                 : S_HDMV/PGS
  74. Codec ID/Info                            : Picture based subtitle format used on BDs/HD-DVDs
  75. Duration                                 : 2 h 20 min
  76. Bit rate                                 : 39.5 kb/s
  77. Count of elements                        : 3262
  78. Stream size                              : 39.8 MiB (0%)
  79. Title                                    : Italian-PGS
  80. Language                                 : Italian
  81. Default                                  : No
  82. Forced                                   : No
  83. Menu
  84. 00:00:00.000                             : en:Chapter 1
  85. 00:11:01.577                             : en:Chapter 2
  86. 00:25:06.046                             : en:Chapter 3
  87. 00:40:19.972                             : en:Chapter 4
  88. 01:11:11.934                             : en:Chapter 5
  89. 01:18:45.345                             : en:Chapter 6
  90. 01:29:46.589                             : en:Chapter 7
  91. 01:36:46.550                             : en:Chapter 8
  92. 01:47:30.944                             : en:Chapter 9
  93. 01:52:13.393                             : en:Chapter 10
  94. 02:06:50.060                             : en:Chapter 11
  95. 02:15:47.222                             : en:Chapter 12
复制代码






                                       
                                       

                                       
                                       
                                       




回复

使用道具 举报

懒得打字嘛,点击右侧快捷回复 【右侧内容,后台自定义】
您需要登录后才可以回帖 登录 | 立即加入

本版积分规则

Archiver|小黑屋| 蓝光电影网 |网站地图

Copyright © 2021 Comsenz Inc. Powered by 蓝光电影网

蓝光电影网

本站内容由用户自主分享和转载自互联网,转载目的在于传递更多信息,并不代表本网赞同其观点和对其真实性负责。

如有侵权、违反国家法律政策行为,请联系我们,我们会第一时间及时清除和处理!

举报反馈邮箱:[email protected]

快速回复 返回顶部 返回列表