找回密码

蓝光电影网

查看: 12|回复: 0

[动作] 钢铁侠3/钢铁人3 Iron.Man.3.2013.REMASTERED.1080p.BluRay.x264.TrueHD.7.1.Atmos-SWTYBLZ 17.04GB

[复制链接]
蓝光币
511
发表于 2019-8-10 04:45:52 | 显示全部楼层 |阅读模式
[img]https://img1.doubanio.com/view/photo/l_ratio_poster/public/p1955027201.jpg[img]
◎译  名 钢铁侠3 / 钢铁人3(台) / 铁人3 / 铁甲奇侠3(港)
◎片  名 Iron Man 3
◎年  代 2013
◎产  地 美国 / 中国大陆
◎类  别 行动 / 科幻
◎语  言 英语 / 汉语普通话
◎上映日期 2013-04-18(伦敦首映) / 2013-05-01(中国大陆) / 2013-05-03(美国)
◎IMDb评分  7.2/10 from 700775 users
◎IMDb链接  http://www.imdb.com/title/tt1300854
◎豆瓣评分 7.8/10 from 331644 users
◎豆瓣链接 https://movie.douban.com/subject/3231742/
◎片  长 134分钟(中国大陆)
◎导  演 沙恩·布莱克 Shane Black
◎编  剧 沙恩·布莱克 Shane Black / 德鲁·皮尔斯 Drew Pearce / 斯坦·李 Stan Lee / 唐·赫克 Don Heck / 拉里·利伯 Larry Lieber / 杰克·科比 Jack Kirby
◎主  演 小罗伯特·唐尼 Robert Downey Jr.
       盖·皮尔斯 Guy Pearce
       格温妮斯·帕特洛 Gwyneth Paltrow
       本·金斯利 Ben Kingsley
       唐·钱德尔 Don Cheadle
       保罗·贝坦尼 Paul Bettany
       丽贝卡·豪尔 Rebecca Hall
       乔恩·费儒 Jon Favreau
       威廉姆·赛德勒 William Sadler
       詹姆斯·戴尔 James Badge Dale
       伊芳·齐玛 Yvonne Zima
       泰·辛普金斯 Ty Simpkins
       阿什利·汉弥尔顿 Ashley Hamilton
       王学圻 Xueqi Wang
       范冰冰 Bingbing Fan

◎标  签 科幻 | 钢铁侠 | 美国 | 超级豪杰 | 行动 | MARVEL | 2013 | 漫画改编
◎简  介  
  自纽约事务以来,托尼·斯塔克(小罗伯特·唐尼 Robert Downey Jr. 饰)为史无前例的焦虑症所困扰。他疯狂投入钢铁侠升级版的研发,为此夜以继日,甚至疏忽了女友佩珀·波茨(格温妮斯·帕特洛 Gwyneth Paltrow 饰)的感受。与此同时,污名昭著的可骇头子曼达林(本·金斯利 Ben Kingsley 饰)制造了连续串的爆炸攻击事务,托尼昔时最虔诚的保镳即在比来的一次攻击中身负重伤。未过量久,托尼、佩珀以及曾与他有过一面之缘的女动物学家玛雅(丽贝卡·豪尔 Rebecca Hall 饰)在家中遭到狠恶的炮火攻击,几近丧命,而这一切似乎都与22年前那名偶然相逢的科学家阿尔德里奇·基连(盖·皮尔斯 Guy Pearce 饰)及其终极生物的研讨有关。
  即使有紧密先辈的铠甲护身,也没法排解发自心底的焦虑。被击碎一切的托尼,若何穿越来自天堂的熊熊猛火……
◎获奖情况  
  第86届奥斯卡金像奖(2014)
  最好视觉结果(提名) 盖伊·威廉斯 / 克里斯托弗·汤森 / Erik Nash / 丹尼尔·萨迪克
  第23届MTV电影奖(2014)
  MTV电影奖 最好客串表演(提名) 琼·里弗斯
  MTV电影奖 最好豪杰形象(提名) 小罗伯特·唐尼
  第61届美国音效剪辑协会奖(2014)
  金卷轴奖 最好电影音效剪辑(提名) John T. Cucci / Charlie Campagna / 丹·奥康奈尔 / Tim Walston / Alan Rankin / Karen Vassar / 安德鲁·克里斯托法罗 / Ann Scibelli / Shannon Mills / 马克·P·施特金格尔
  第12届美国视觉结果协会奖(2014)
  最好殊效电影视觉结果(提名) 布莱恩·吉尔 / 盖伊·威廉斯 / Mark G. Soper / 克里斯托弗·汤森
  最好真人电影CG布景(提名) John Stevenson-Galvin
  最好电影虚拟摄影(提名) Thelvin Cabezas
  最好电影视觉结果分解(提名) Justin van der Lek / Stefano Trivelli
  第50届美国声音结果协会奖(2014)
  真人电影最好音效(提名) Joel Iwataki / Mike Prestwood Smith / Michael Keller
  第19届美国批评家挑选电影奖(2014)
  最好行动片(提名)
  行动片最好男配角(提名) 小罗伯特·唐尼
  行动片最好女配角(提名) 格温妮斯·帕特洛
  最好视觉结果(提名)
  第17届好莱坞电影奖(2013)
  年度电影(提名) 沙恩·布莱克
  第15届美国青少年挑选奖(2013)
  最好行动片
  最好行动片男演员 小罗伯特·唐尼
  最好行动片女演员(提名) 格温妮斯·帕特洛
  最好科幻/奇异电影(提名)
  最好科幻/奇异电影男演员(提名) 小罗伯特·唐尼
  最好科幻/奇异电影女演员(提名) 格温妮斯·帕特洛
  最好电影反派(提名) 本·金斯利
  最好银幕拍档(提名) 小罗伯特·唐尼 / 唐·钱德尔
  第4届豆瓣电影鑫像奖(2014)
  鑫豆单元 最好科幻/行动片(提名)
  1. Video
  2. ID                                       : 1
  3. Format                                   : AVC
  4. Format/Info                              : Advanced Video Codec
  5. Format profile                           : [email protected]
  6. Format settings                          : CABAC / 5 Ref Frames
  7. Format settings, CABAC                   : Yes
  8. Format settings, Reference frames        : 5 frames
  9. Codec ID                                 : V_MPEG4/ISO/AVC
  10. Duration                                 : 2 h 10 min
  11. Bit rate                                 : 13.0 Mb/s
  12. Width                                    : 1 920 pixels
  13. Height                                   : 800 pixels
  14. Display aspect ratio                     : 2.40:1
  15. Frame rate mode                          : Constant
  16. Frame rate                               : 23.976 (24000/1001) FPS
  17. Color space                              : YUV
  18. Chroma subsampling                       : 4:2:0
  19. Bit depth                                : 8 bits
  20. Scan type                                : Progressive
  21. Bits/(Pixel*Frame)                       : 0.354
  22. Stream size                              : 11.9 GiB (70%)
  23. Title                                    : Iron.Man.3.2013.REMASTERED.1080p.BluRay.x264.TrueHD.7.1.Atmos-SWTYBLZ
  24. Writing library                          : x264 core 157 r2935 545de2f
  25. Encoding settings                        : cabac=1 / ref=5 / deblock=1:-1:-1 / analyse=0x3:0x133 / me=umh / subme=10 / psy=1 / psy_rd=1.00:0.15 / mixed_ref=1 / me_range=48 / chroma_me=1 / trellis=2 / 8x8dct=1 / cqm=0 / deadzone=21,11 / fast_pskip=1 / chroma_qp_offset=-3 / threads=25 / lookahead_threads=4 / sliced_threads=0 / nr=0 / decimate=0 / interlaced=0 / bluray_compat=0 / constrained_intra=0 / bframes=8 / b_pyramid=2 / b_adapt=2 / b_bias=0 / direct=3 / weightb=1 / open_gop=0 / weightp=2 / keyint=250 / keyint_min=23 / scenecut=40 / intra_refresh=0 / rc_lookahead=60 / rc=crf / mbtree=1 / crf=12.0 / qcomp=0.60 / qpmin=0 / qpmax=69 / qpstep=4 / ip_ratio=1.40 / aq=1:1.00
  26. Default                                  : Yes
  27. Forced                                   : No
  28. Audio #1
  29. ID                                       : 2
  30. Format                                   : MLP FBA 16-ch
  31. Format/Info                              : Meridian Lossless Packing FBA with 16-channel presentation
  32. Commercial name                          : Dolby TrueHD with Dolby Atmos
  33. Codec ID                                 : A_TRUEHD
  34. Duration                                 : 2 h 10 min
  35. Bit rate mode                            : Variable
  36. Bit rate                                 : 4 826 kb/s
  37. Maximum bit rate                         : 7 887 kb/s
  38. Channel(s)                               : 8 channels
  39. Channel layout                           : L R C LFE Ls Rs Lb Rb
  40. Sampling rate                            : 48.0 kHz
  41. Frame rate                               : 1 200.000 FPS (40 SPF)
  42. Compression mode                         : Lossless
  43. Stream size                              : 4.40 GiB (26%)
  44. Title                                    : Iron.Man.3.2013.REMASTERED.1080p.BluRay.x264.TrueHD.7.1.Atmos-SWTYBLZ
  45. Language                                 : English
  46. Default                                  : Yes
  47. Forced                                   : No
  48. Number of dynamic objects                : 13
  49. Bed channel count                        : 1 channel
  50. Bed channel configuration                : LFE
  51. Audio #2
  52. ID                                       : 3
  53. Format                                   : AC-3
  54. Format/Info                              : Audio Coding 3
  55. Commercial name                          : Dolby Digital
  56. Codec ID                                 : A_AC3
  57. Duration                                 : 2 h 10 min
  58. Bit rate mode                            : Constant
  59. Bit rate                                 : 640 kb/s
  60. Channel(s)                               : 6 channels
  61. Channel layout                           : L R C LFE Ls Rs
  62. Sampling rate                            : 48.0 kHz
  63. Frame rate                               : 31.250 FPS (1536 SPF)
  64. Bit depth                                : 16 bits
  65. Compression mode                         : Lossy
  66. Stream size                              : 597 MiB (3%)
  67. Title                                    : Iron.Man.3.2013.REMASTERED.1080p.BluRay.x264.TrueHD.7.1.Atmos-SWTYBLZ
  68. Language                                 : English
  69. Service kind                             : Complete Main
  70. Default                                  : No
  71. Forced                                   : No
  72. Text #1
  73. ID                                       : 4
  74. Format                                   : UTF-8
  75. Codec ID                                 : S_TEXT/UTF8
  76. Codec ID/Info                            : UTF-8 Plain Text
  77. Duration                                 : 2 h 10 min
  78. Bit rate                                 : 58 b/s
  79. Count of elements                        : 1733
  80. Stream size                              : 56.0 KiB (0%)
  81. Title                                    : English-SRT
  82. Language                                 : English
  83. Default                                  : Yes
  84. Forced                                   : No
  85. Text #2
  86. ID                                       : 5
  87. Format                                   : PGS
  88. Muxing mode                              : zlib
  89. Codec ID                                 : S_HDMV/PGS
  90. Codec ID/Info                            : Picture based subtitle format used on BDs/HD-DVDs
  91. Duration                                 : 2 h 10 min
  92. Bit rate                                 : 36.1 kb/s
  93. Count of elements                        : 3480
  94. Stream size                              : 33.5 MiB (0%)
  95. Title                                    : English-PGS
  96. Language                                 : English
  97. Default                                  : No
  98. Forced                                   : No
  99. Text #3
  100. ID                                       : 6
  101. Format                                   : PGS
  102. Muxing mode                              : zlib
  103. Codec ID                                 : S_HDMV/PGS
  104. Codec ID/Info                            : Picture based subtitle format used on BDs/HD-DVDs
  105. Duration                                 : 2 h 10 min
  106. Bit rate                                 : 53.2 kb/s
  107. Count of elements                        : 4336
  108. Stream size                              : 49.4 MiB (0%)
  109. Title                                    : English-SDH-PGS
  110. Language                                 : English
  111. Default                                  : No
  112. Forced                                   : No
  113. Text #4
  114. ID                                       : 7
  115. Format                                   : PGS
  116. Muxing mode                              : zlib
  117. Codec ID                                 : S_HDMV/PGS
  118. Codec ID/Info                            : Picture based subtitle format used on BDs/HD-DVDs
  119. Duration                                 : 2 h 10 min
  120. Bit rate                                 : 42.6 kb/s
  121. Count of elements                        : 3544
  122. Stream size                              : 39.7 MiB (0%)
  123. Title                                    : French-PGS
  124. Language                                 : French
  125. Default                                  : No
  126. Forced                                   : No
  127. Text #5
  128. ID                                       : 8
  129. Format                                   : PGS
  130. Muxing mode                              : zlib
  131. Codec ID                                 : S_HDMV/PGS
  132. Codec ID/Info                            : Picture based subtitle format used on BDs/HD-DVDs
  133. Duration                                 : 2 h 10 min
  134. Bit rate                                 : 34.3 kb/s
  135. Count of elements                        : 3414
  136. Stream size                              : 31.9 MiB (0%)
  137. Title                                    : French-PGS
  138. Language                                 : French
  139. Default                                  : No
  140. Forced                                   : No
  141. Text #6
  142. ID                                       : 9
  143. Format                                   : PGS
  144. Muxing mode                              : zlib
  145. Codec ID                                 : S_HDMV/PGS
  146. Codec ID/Info                            : Picture based subtitle format used on BDs/HD-DVDs
  147. Duration                                 : 2 h 10 min
  148. Bit rate                                 : 41.5 kb/s
  149. Count of elements                        : 3448
  150. Stream size                              : 38.7 MiB (0%)
  151. Title                                    : Italian-PGS
  152. Language                                 : Italian
  153. Default                                  : No
  154. Forced                                   : No
  155. Text #7
  156. ID                                       : 10
  157. Format                                   : PGS
  158. Muxing mode                              : zlib
  159. Codec ID                                 : S_HDMV/PGS
  160. Codec ID/Info                            : Picture based subtitle format used on BDs/HD-DVDs
  161. Duration                                 : 2 h 10 min
  162. Bit rate                                 : 20.0 kb/s
  163. Count of elements                        : 2892
  164. Stream size                              : 18.7 MiB (0%)
  165. Title                                    : Japanese-PGS
  166. Language                                 : Japanese
  167. Default                                  : No
  168. Forced                                   : No
  169. Text #8
  170. ID                                       : 11
  171. Format                                   : PGS
  172. Muxing mode                              : zlib
  173. Codec ID                                 : S_HDMV/PGS
  174. Codec ID/Info                            : Picture based subtitle format used on BDs/HD-DVDs
  175. Duration                                 : 2 h 10 min
  176. Bit rate                                 : 38.9 kb/s
  177. Count of elements                        : 3454
  178. Stream size                              : 36.3 MiB (0%)
  179. Title                                    : Norwegian-PGS
  180. Language                                 : Norwegian
  181. Default                                  : No
  182. Forced                                   : No
  183. Text #9
  184. ID                                       : 12
  185. Format                                   : PGS
  186. Muxing mode                              : zlib
  187. Codec ID                                 : S_HDMV/PGS
  188. Codec ID/Info                            : Picture based subtitle format used on BDs/HD-DVDs
  189. Duration                                 : 2 h 10 min
  190. Bit rate                                 : 33.2 kb/s
  191. Count of elements                        : 3434
  192. Stream size                              : 30.9 MiB (0%)
  193. Title                                    : Spanish-PGS
  194. Language                                 : Spanish
  195. Default                                  : No
  196. Forced                                   : No
  197. Text #10
  198. ID                                       : 13
  199. Format                                   : PGS
  200. Muxing mode                              : zlib
  201. Codec ID                                 : S_HDMV/PGS
  202. Codec ID/Info                            : Picture based subtitle format used on BDs/HD-DVDs
  203. Duration                                 : 2 h 10 min
  204. Bit rate                                 : 30.9 kb/s
  205. Count of elements                        : 2098
  206. Stream size                              : 28.8 MiB (0%)
  207. Title                                    : Swedish-PGS
  208. Language                                 : Swedish
  209. Default                                  : No
  210. Forced                                   : No
  211. Menu
  212. 00:00:00.000                             : en:Chapter 01
  213. 00:04:52.751                             : en:Chapter 02
  214. 00:07:55.433                             : en:Chapter 03
  215. 00:12:12.440                             : en:Chapter 04
  216. 00:19:04.101                             : en:Chapter 05
  217. 00:23:47.885                             : en:Chapter 06
  218. 00:29:47.703                             : en:Chapter 07
  219. 00:39:46.384                             : en:Chapter 08
  220. 00:45:56.045                             : en:Chapter 09
  221. 00:59:19.639                             : en:Chapter 10
  222. 01:01:56.922                             : en:Chapter 11
  223. 01:09:24.452                             : en:Chapter 12
  224. 01:18:41.508                             : en:Chapter 13
  225. 01:23:52.945                             : en:Chapter 14
  226. 01:37:55.995                             : en:Chapter 15
  227. 01:56:18.305                             : en:Chapter 16
  228. 01:59:38.755                             : en:Chapter 17
复制代码






                                       
                                       

                                       
                                       
                                       




回复

使用道具 举报

懒得打字嘛,点击右侧快捷回复 【右侧内容,后台自定义】
您需要登录后才可以回帖 登录 | 立即加入

本版积分规则

Archiver|小黑屋| 蓝光电影网 |网站地图

Copyright © 2021 Comsenz Inc. Powered by 蓝光电影网

蓝光电影网

本站内容由用户自主分享和转载自互联网,转载目的在于传递更多信息,并不代表本网赞同其观点和对其真实性负责。

如有侵权、违反国家法律政策行为,请联系我们,我们会第一时间及时清除和处理!

举报反馈邮箱:[email protected]

快速回复 返回顶部 返回列表