找回密码

蓝光电影网

查看: 32|回复: 0

[动作] 异形魔怪:尖叫岛 Tremors.Shrieker.Island.2020.1080p.BluRay.REMUX.AVC.DTS-HD.MA.5.1-FGT 27.05GB

[复制链接]
蓝光币
515
发表于 2020-10-19 09:42:12 | 显示全部楼层 |阅读模式


◎译  名 异形魔怪:尖叫岛
◎片  名 Tremors: Shrieker Island
◎年  代 2020
◎产  地 美国
◎类  别 行动 / 科幻 / 惊悚
◎语  言 英语
◎上映日期 2020-10-20(美国)
◎IMDb评分  5.4/10 from 380 users
◎IMDb链接  https://www.imdb.com/title/tt8322060/
◎豆瓣评分 /10 from 0 users
◎豆瓣链接 https://movie.douban.com/subject/35208051/
◎标  签 美国 | 怪兽 | 怪物 | 2020 | 美国电影 | 电影 | 惊悚 | 可骇
◎简  介


  Graboids are illegally taken to a new island resort by a rich playboy as a dangerous form of trophy hunting, and Burt Gummer steps up to save the day.
  1. Video
  2. ID                                       : 1
  3. ID in the original source medium         : 4113 (0x1011)
  4. Format                                   : AVC
  5. Format/Info                              : Advanced Video Codec
  6. Format profile                           : [email protected]
  7. Format settings                          : CABAC / 4 Ref Frames
  8. Format settings, CABAC                   : Yes
  9. Format settings, Reference frames        : 4 frames
  10. Codec ID                                 : V_MPEG4/ISO/AVC
  11. Duration                                 : 1 h 42 min
  12. Bit rate mode                            : Variable
  13. Bit rate                                 : 32.2 Mb/s
  14. Maximum bit rate                         : 36.0 Mb/s
  15. Width                                    : 1 920 pixels
  16. Height                                   : 1 080 pixels
  17. Display aspect ratio                     : 16:9
  18. Frame rate mode                          : Constant
  19. Frame rate                               : 23.976 (24000/1001/189150) FPS
  20. Color space                              : YUV
  21. Chroma subsampling                       : 4:2:0
  22. Bit depth                                : 8 bits
  23. Scan type                                : Progressive
  24. Bits/(Pixel*Frame)                       : 0.647
  25. Stream size                              : 23.0 GiB (85%)
  26. Title                                    : Tremors.Shrieker.Island.2020.1080p.BluRay.REMUX.AVC.DTS-HD.MA.5.1-FGT
  27. Language                                 : English
  28. Default                                  : No
  29. Forced                                   : No
  30. Original source medium                   : Blu-ray
  31. Audio #1
  32. ID                                       : 2
  33. ID in the original source medium         : 4352 (0x1100)
  34. Format                                   : DTS XLL
  35. Format/Info                              : Digital Theater Systems
  36. Commercial name                          : DTS-HD Master Audio
  37. Codec ID                                 : A_DTS
  38. Duration                                 : 1 h 42 min
  39. Bit rate mode                            : Variable
  40. Bit rate                                 : 4 087 kb/s
  41. Channel(s)                               : 6 channels
  42. Channel layout                           : C L R Ls Rs LFE
  43. Sampling rate                            : 48.0 kHz
  44. Frame rate                               : 93.750 FPS (512 SPF)
  45. Bit depth                                : 24 bits
  46. Compression mode                         : Lossless
  47. Stream size                              : 2.92 GiB (11%)
  48. Title                                    : Tremors.Shrieker.Island.2020.1080p.BluRay.REMUX.AVC.DTS-HD.MA.5.1-FGT
  49. Language                                 : English
  50. Default                                  : Yes
  51. Forced                                   : No
  52. Original source medium                   : Blu-ray
  53. Audio #2
  54. ID                                       : 3
  55. ID in the original source medium         : 4353 (0x1101)
  56. Format                                   : DTS
  57. Format/Info                              : Digital Theater Systems
  58. Codec ID                                 : A_DTS
  59. Duration                                 : 1 h 42 min
  60. Bit rate mode                            : Constant
  61. Bit rate                                 : 768 kb/s
  62. Channel(s)                               : 6 channels
  63. Channel layout                           : C L R Ls Rs LFE
  64. Sampling rate                            : 48.0 kHz
  65. Frame rate                               : 93.750 FPS (512 SPF)
  66. Bit depth                                : 24 bits
  67. Compression mode                         : Lossy
  68. Stream size                              : 562 MiB (2%)
  69. Title                                    : Tremors.Shrieker.Island.2020.1080p.BluRay.REMUX.AVC.DTS-HD.MA.5.1-FGT
  70. Language                                 : Spanish
  71. Default                                  : No
  72. Forced                                   : No
  73. Original source medium                   : Blu-ray
  74. Audio #3
  75. ID                                       : 4
  76. ID in the original source medium         : 4354 (0x1102)
  77. Format                                   : DTS
  78. Format/Info                              : Digital Theater Systems
  79. Codec ID                                 : A_DTS
  80. Duration                                 : 1 h 42 min
  81. Bit rate mode                            : Constant
  82. Bit rate                                 : 768 kb/s
  83. Channel(s)                               : 6 channels
  84. Channel layout                           : C L R Ls Rs LFE
  85. Sampling rate                            : 48.0 kHz
  86. Frame rate                               : 93.750 FPS (512 SPF)
  87. Bit depth                                : 24 bits
  88. Compression mode                         : Lossy
  89. Stream size                              : 562 MiB (2%)
  90. Title                                    : Tremors.Shrieker.Island.2020.1080p.BluRay.REMUX.AVC.DTS-HD.MA.5.1-FGT
  91. Language                                 : French
  92. Default                                  : No
  93. Forced                                   : No
  94. Original source medium                   : Blu-ray
  95. Text #1
  96. ID                                       : 5
  97. Format                                   : UTF-8
  98. Codec ID                                 : S_TEXT/UTF8
  99. Codec ID/Info                            : UTF-8 Plain Text
  100. Duration                                 : 1 h 31 min
  101. Bit rate                                 : 50 b/s
  102. Count of elements                        : 1027
  103. Stream size                              : 33.9 KiB (0%)
  104. Title                                    : English-SRT
  105. Language                                 : English
  106. Default                                  : Yes
  107. Forced                                   : No
  108. Text #2
  109. ID                                       : 6
  110. ID in the original source medium         : 4608 (0x1200)
  111. Format                                   : PGS
  112. Muxing mode                              : zlib
  113. Codec ID                                 : S_HDMV/PGS
  114. Codec ID/Info                            : Picture based subtitle format used on BDs/HD-DVDs
  115. Duration                                 : 1 h 34 min
  116. Bit rate                                 : 38.9 kb/s
  117. Count of elements                        : 2619
  118. Stream size                              : 26.2 MiB (0%)
  119. Title                                    : English-PGS
  120. Language                                 : English
  121. Default                                  : No
  122. Forced                                   : No
  123. Original source medium                   : Blu-ray
  124. Text #3
  125. ID                                       : 7
  126. ID in the original source medium         : 4609 (0x1201)
  127. Format                                   : PGS
  128. Muxing mode                              : zlib
  129. Codec ID                                 : S_HDMV/PGS
  130. Codec ID/Info                            : Picture based subtitle format used on BDs/HD-DVDs
  131. Duration                                 : 1 h 39 min
  132. Bit rate                                 : 28.1 kb/s
  133. Count of elements                        : 1990
  134. Stream size                              : 20.0 MiB (0%)
  135. Title                                    : Spanish-PGS
  136. Language                                 : Spanish
  137. Default                                  : No
  138. Forced                                   : No
  139. Original source medium                   : Blu-ray
  140. Text #4
  141. ID                                       : 8
  142. ID in the original source medium         : 4610 (0x1202)
  143. Format                                   : PGS
  144. Muxing mode                              : zlib
  145. Codec ID                                 : S_HDMV/PGS
  146. Codec ID/Info                            : Picture based subtitle format used on BDs/HD-DVDs
  147. Duration                                 : 1 h 39 min
  148. Bit rate                                 : 28.1 kb/s
  149. Count of elements                        : 1990
  150. Stream size                              : 20.0 MiB (0%)
  151. Title                                    : French-PGS
  152. Language                                 : French
  153. Default                                  : No
  154. Forced                                   : No
  155. Original source medium                   : Blu-ray
  156. Text #5
  157. ID                                       : 9
  158. ID in the original source medium         : 4611 (0x1203)
  159. Format                                   : PGS
  160. Muxing mode                              : zlib
  161. Codec ID                                 : S_HDMV/PGS
  162. Codec ID/Info                            : Picture based subtitle format used on BDs/HD-DVDs
  163. Duration                                 : 1 h 36 min
  164. Bit rate                                 : 161 b/s
  165. Count of elements                        : 14
  166. Stream size                              : 115 KiB (0%)
  167. Title                                    : Spanish-FORCED-PGS
  168. Language                                 : Spanish
  169. Default                                  : No
  170. Forced                                   : No
  171. Original source medium                   : Blu-ray
  172. Text #6
  173. ID                                       : 10
  174. ID in the original source medium         : 4612 (0x1204)
  175. Format                                   : PGS
  176. Muxing mode                              : zlib
  177. Codec ID                                 : S_HDMV/PGS
  178. Codec ID/Info                            : Picture based subtitle format used on BDs/HD-DVDs
  179. Duration                                 : 1 h 36 min
  180. Bit rate                                 : 297 b/s
  181. Count of elements                        : 26
  182. Stream size                              : 210 KiB (0%)
  183. Title                                    : French-FORCED-PGS
  184. Language                                 : French
  185. Default                                  : No
  186. Forced                                   : No
  187. Original source medium                   : Blu-ray
  188. Menu
  189. 00:00:00.000                             : en:Chapter 01
  190. 00:05:25.700                             : en:Chapter 02
  191. 00:09:35.825                             : en:Chapter 03
  192. 00:15:41.482                             : en:Chapter 04
  193. 00:20:10.792                             : en:Chapter 05
  194. 00:28:44.806                             : en:Chapter 06
  195. 00:32:48.800                             : en:Chapter 07
  196. 00:36:44.785                             : en:Chapter 08
  197. 00:40:42.523                             : en:Chapter 09
  198. 00:45:20.968                             : en:Chapter 10
  199. 00:50:04.459                             : en:Chapter 11
  200. 00:55:01.589                             : en:Chapter 12
  201. 01:00:17.488                             : en:Chapter 13
  202. 01:05:59.038                             : en:Chapter 14
  203. 01:10:24.553                             : en:Chapter 15
  204. 01:14:31.216                             : en:Chapter 16
  205. 01:22:49.172                             : en:Chapter 17
  206. 01:26:39.694                             : en:Chapter 18
  207. 01:29:45.755                             : en:Chapter 19
  208. 01:37:07.613                             : en:Chapter 20
复制代码






                                       
                                       

                                       
                                       
                                       




回复

使用道具 举报

懒得打字嘛,点击右侧快捷回复 【右侧内容,后台自定义】
您需要登录后才可以回帖 登录 | 立即加入

本版积分规则

Archiver|小黑屋| 蓝光电影网 |网站地图

Copyright © 2021 Comsenz Inc. Powered by 蓝光电影网

蓝光电影网

本站内容由用户自主分享和转载自互联网,转载目的在于传递更多信息,并不代表本网赞同其观点和对其真实性负责。

如有侵权、违反国家法律政策行为,请联系我们,我们会第一时间及时清除和处理!

举报反馈邮箱:[email protected]

快速回复 返回顶部 返回列表