找回密码

蓝光电影网

查看: 7|回复: 0

[动作] 火影忍者疾风传剧场版:鸣人之死 Naruto.The.Movie.Shippuden.2007.1080p.BluRay.x264-SONiDO 5.46GB

[复制链接]
蓝光币
511
发表于 2019-8-9 05:29:56 | 显示全部楼层 |阅读模式
[img]https://img1.doubanio.com/view/photo/l_ratio_poster/public/p1076990667.jpg[img]
◎译  名 火影忍者疾风传戏院版:鸣人之死 / Naruto The Movie 4 / 火影忍者4 / 火影忍者戏院版 疾风伝 鸣人之死 / 火影忍者戏院版4 疾风传:鸣人之死
◎片  名 劇場版 NARUTO -ナルト- 疾風伝
◎年  代 2007
◎产  地 日本
◎类  别 行动 / 动画 / 家庭 / 奇异 / 冒险
◎语  言 日语
◎上映日期 2007-08-04
◎IMDb评分  7.0/10 from 2647 users
◎IMDb链接  http://www.imdb.com/title/tt0988982
◎豆瓣评分 7.2/10 from 9526 users
◎豆瓣链接 https://movie.douban.com/subject/2051813/
◎片  长 Japan: 90 分钟
◎导  演 龟垣一 Hajime Kamegaki
◎编  剧 武上纯希 Junki Takegami / 岸本齐史 Masashi Kishimoto
◎主  演 竹内顺子 Junko Takeuchi
       中村千绘 Chie Nakamura
       增川洋一 Yoichi Masukawa
       远近孝一 K?ichi T?chika
       藤村步 Ayumi Fujimura
       藤田圭宣 Yoshinori Fujita
       岸尾大辅 Daisuke Kishio
       折笠富美子 Fumiko Orikasa
       中村秀利 Hidetoshi Nakamura
       柿原彻也 Tetsuya Kakihara
       谷山纪章 Kish? Taniyama
       泽城美雪 Miyuki Sawashiro
       小西克幸 Katsuyuki Konishi
       胜生真沙子 Masako Katsuki
       底子圭子 Keiko Nemoto
       江原正士 Masashi Ebara
       井上和彦 Kazuhiko Inoue
       森久保祥太郎 Shotaro Morikubo
       朴璐美 Romi Pak
       小野大辅 Daisuke Ono
       千千和龙策
       峰健一
       藤井启辅 Fujii Keisuke
       西野阳子
       锅井真纪子
       安齐一博
       木村拓
       櫛田泰道 Yasumichi Kushida
       石上裕一
       远藤大辅
       增田隆之
       松尾大亮
       石川千鹤
       加藤精三 Seiz? Kat?

◎标  签 戏院版 | 火影忍者 | 日本 | 动画 | 动漫 | 火电影院版疾风传 | 日本动画 | 火影
◎简  介  
  鬼魂军团的黄泉(中村秀利 配音)经过奥秘的暗黑医疗术,新生了具有足以扑灭天下可骇气力的魔物魍魉(加藤精三 配音),希望以此建立黑暗的千年王国。魍魉俯身于黄泉身上,随即号令鬼魂军团攻打鬼之国,诡计杀戮具有封印魔物和预言灭亡才能的巫女紫苑(藤村歩 配音),并预备夺回魍魉封印在沼之国的精神。一旦魍魉的灵魂和精神合二为一,天下将完全衰亡。鬼之国遇袭的消息很快传到其他列国,叶隐村的忍者也被变更起来。鸣人(竹内顺子 配音)、小樱(中村千绘 配音)、宁次(遠近孝一 配音)和小李(増川洋一 配音)受命前往庇护紫苑。但是,鸣人却从紫苑的口中获得他将死去的预言……
  本片为《火影忍者》第四部戏院版动画。
  1. Video
  2. ID                                       : 1
  3. Format                                   : AVC
  4. Format/Info                              : Advanced Video Codec
  5. Format profile                           : [email protected]
  6. Format settings                          : CABAC / 4 Ref Frames
  7. Format settings, CABAC                   : Yes
  8. Format settings, Reference frames        : 4 frames
  9. Codec ID                                 : V_MPEG4/ISO/AVC
  10. Duration                                 : 1 h 35 min
  11. Bit rate                                 : 6 624 kb/s
  12. Width                                    : 1 920 pixels
  13. Height                                   : 1 040 pixels
  14. Display aspect ratio                     : 1.85:1
  15. Frame rate mode                          : Constant
  16. Frame rate                               : 29.970 (29970/1000) FPS
  17. Color space                              : YUV
  18. Chroma subsampling                       : 4:2:0
  19. Bit depth                                : 8 bits
  20. Scan type                                : Progressive
  21. Bits/(Pixel*Frame)                       : 0.111
  22. Stream size                              : 4.32 GiB (79%)
  23. Writing library                          : x264 core 122 r2184 5c85e0a
  24. Encoding settings                        : cabac=1 / ref=4 / deblock=1:0:0 / analyse=0x3:0x133 / me=umh / subme=7 / psy=1 / psy_rd=1.00:0.00 / mixed_ref=1 / me_range=16 / chroma_me=1 / trellis=1 / 8x8dct=1 / cqm=0 / deadzone=21,11 / fast_pskip=0 / chroma_qp_offset=-2 / threads=12 / sliced_threads=0 / nr=0 / decimate=1 / interlaced=0 / bluray_compat=0 / constrained_intra=0 / bframes=3 / b_pyramid=2 / b_adapt=2 / b_bias=0 / direct=3 / weightb=1 / open_gop=0 / weightp=2 / keyint=250 / keyint_min=25 / scenecut=40 / intra_refresh=0 / rc_lookahead=50 / rc=2pass / mbtree=1 / bitrate=6624 / ratetol=1.0 / qcomp=0.60 / qpmin=0 / qpmax=69 / qpstep=4 / cplxblur=20.0 / qblur=0.5 / ip_ratio=1.40 / aq=1:1.00
  25. Language                                 : English
  26. Default                                  : Yes
  27. Forced                                   : No
  28. Audio #1
  29. ID                                       : 2
  30. Format                                   : DTS
  31. Format/Info                              : Digital Theater Systems
  32. Codec ID                                 : A_DTS
  33. Duration                                 : 1 h 35 min
  34. Bit rate mode                            : Constant
  35. Bit rate                                 : 768 kb/s
  36. Channel(s)                               : 6 channels
  37. Channel layout                           : C L R Ls Rs LFE
  38. Sampling rate                            : 48.0 kHz
  39. Frame rate                               : 93.750 FPS (512 SPF)
  40. Bit depth                                : 24 bits
  41. Compression mode                         : Lossy
  42. Stream size                              : 526 MiB (9%)
  43. Language                                 : Japanese
  44. Default                                  : Yes
  45. Forced                                   : No
  46. Audio #2
  47. ID                                       : 3
  48. Format                                   : DTS
  49. Format/Info                              : Digital Theater Systems
  50. Codec ID                                 : A_DTS
  51. Duration                                 : 1 h 35 min
  52. Bit rate mode                            : Constant
  53. Bit rate                                 : 768 kb/s
  54. Channel(s)                               : 6 channels
  55. Channel layout                           : C L R Ls Rs LFE
  56. Sampling rate                            : 48.0 kHz
  57. Frame rate                               : 93.750 FPS (512 SPF)
  58. Bit depth                                : 24 bits
  59. Compression mode                         : Lossy
  60. Stream size                              : 526 MiB (9%)
  61. Language                                 : English
  62. Default                                  : No
  63. Forced                                   : No
  64. Text
  65. ID                                       : 4
  66. Format                                   : UTF-8
  67. Codec ID                                 : S_TEXT/UTF8
  68. Codec ID/Info                            : UTF-8 Plain Text
  69. Language                                 : English
  70. Default                                  : Yes
  71. Forced                                   : No
复制代码






                                       
                                       

                                       
                                       
                                       




回复

使用道具 举报

懒得打字嘛,点击右侧快捷回复 【右侧内容,后台自定义】
您需要登录后才可以回帖 登录 | 立即加入

本版积分规则

Archiver|小黑屋| 蓝光电影网 |网站地图

Copyright © 2021 Comsenz Inc. Powered by 蓝光电影网

蓝光电影网

本站内容由用户自主分享和转载自互联网,转载目的在于传递更多信息,并不代表本网赞同其观点和对其真实性负责。

如有侵权、违反国家法律政策行为,请联系我们,我们会第一时间及时清除和处理!

举报反馈邮箱:[email protected]

快速回复 返回顶部 返回列表