找回密码

蓝光电影网

查看: 63|回复: 0

[动作] 看门人/夺命守门人 The.Doorman.2020.1080p.BluRay.REMUX.AVC.DTS-HD.MA.TrueHD.5.1-FGT 20.12GB

[复制链接]
蓝光币
519
发表于 2020-10-3 21:59:52 | 显示全部楼层 |阅读模式


◎译  名 看门人/夺命守门人(台)
◎片  名 Doorman
◎年  代 2020
◎产  地 美国
◎类  别 行动 / 惊悚
◎语  言 英语
◎上映日期 2020-10-09(美国)
◎IMDb链接  https://www.imdb.com/title/tt6222118/
◎豆瓣评分 /10 from 0 users
◎豆瓣链接 https://movie.douban.com/subject/27190023/
◎导  演 北村龙平 Ry?hei Kitamura
◎主  演 鲁比·罗丝 Ruby Rose
       让·雷诺 Jean Reno
       阿卡塞尔·亨涅 Aksel Hennie
       鲁珀特·伊文斯 Rupert Evans
       朱利安·费德 Julian Feder
       大卫·樱井 David Sakurai
       路易·曼迪勒 Louis Mandylor
       伊藤英明 Hideaki Ito
       Philip Whitchurch
       安德烈娅·瓦西里 Andreea Vasile
       Raynor van de Water
       丹·凯德 Dan Cade
◎标  签 让·雷诺 | 美国电影 | 行动 | 伊藤英明 | 惊悚 | 2020 | 美国 | 犯罪
◎简  介


  故事报告一位水兵陆战队军官在退役时代遭到心理创伤,她返国寻觅机遇治疗。她在纽约的一座历史悠久、迷宫一样的公寓大楼当看门人,发现雇佣兵们成心摧毁一切,以便寻觅公寓中的珍宝。
  1. Video
  2. ID                                       : 1
  3. ID in the original source medium         : 4113 (0x1011)
  4. Format                                   : AVC
  5. Format/Info                              : Advanced Video Codec
  6. Format profile                           : [email protected]
  7. Format settings                          : CABAC / 4 Ref Frames
  8. Format settings, CABAC                   : Yes
  9. Format settings, Reference frames        : 4 frames
  10. Codec ID                                 : V_MPEG4/ISO/AVC
  11. Duration                                 : 1 h 37 min
  12. Bit rate mode                            : Variable
  13. Bit rate                                 : 22.6 Mb/s
  14. Maximum bit rate                         : 37.0 Mb/s
  15. Width                                    : 1 920 pixels
  16. Height                                   : 1 080 pixels
  17. Display aspect ratio                     : 16:9
  18. Frame rate mode                          : Constant
  19. Frame rate                               : 23.976 (24000/1001/189150) FPS
  20. Color space                              : YUV
  21. Chroma subsampling                       : 4:2:0
  22. Bit depth                                : 8 bits
  23. Scan type                                : Progressive
  24. Bits/(Pixel*Frame)                       : 0.454
  25. Stream size                              : 15.3 GiB (76%)
  26. Title                                    : The.Doorman.2020.1080p.BluRay.REMUX.AVC.DTS-HD.MA.TrueHD.5.1-FGT
  27. Language                                 : English
  28. Default                                  : No
  29. Forced                                   : No
  30. Original source medium                   : Blu-ray
  31. Audio #1
  32. ID                                       : 2
  33. ID in the original source medium         : 4352 (0x1100)
  34. Format                                   : MLP FBA
  35. Format/Info                              : Meridian Lossless Packing FBA
  36. Commercial name                          : Dolby TrueHD
  37. Codec ID                                 : A_TRUEHD
  38. Duration                                 : 1 h 37 min
  39. Bit rate mode                            : Variable
  40. Bit rate                                 : 2 865 kb/s
  41. Maximum bit rate                         : 4 665 kb/s
  42. Channel(s)                               : 6 channels
  43. Channel layout                           : L R C LFE Ls Rs
  44. Sampling rate                            : 48.0 kHz
  45. Frame rate                               : 1 200.000 FPS (40 SPF)
  46. Compression mode                         : Lossless
  47. Stream size                              : 1.95 GiB (10%)
  48. Title                                    : The.Doorman.2020.1080p.BluRay.REMUX.AVC.DTS-HD.MA.TrueHD.5.1-FGT
  49. Language                                 : English
  50. Default                                  : Yes
  51. Forced                                   : No
  52. Original source medium                   : Blu-ray
  53. Audio #2
  54. ID                                       : 3
  55. Format                                   : DTS XLL
  56. Format/Info                              : Digital Theater Systems
  57. Commercial name                          : DTS-HD Master Audio
  58. Codec ID                                 : A_DTS
  59. Duration                                 : 1 h 37 min
  60. Bit rate mode                            : Variable
  61. Bit rate                                 : 3 400 kb/s
  62. Channel(s)                               : 6 channels
  63. Channel layout                           : C L R Ls Rs LFE
  64. Sampling rate                            : 48.0 kHz
  65. Frame rate                               : 93.750 FPS (512 SPF)
  66. Bit depth                                : 24 bits
  67. Compression mode                         : Lossless
  68. Stream size                              : 2.31 GiB (11%)
  69. Title                                    : The.Doorman.2020.1080p.BluRay.REMUX.AVC.DTS-HD.MA.TrueHD.5.1-FGT
  70. Language                                 : English
  71. Default                                  : No
  72. Forced                                   : No
  73. Audio #3
  74. ID                                       : 4
  75. ID in the original source medium         : 4352 (0x1100)
  76. Format                                   : AC-3
  77. Format/Info                              : Audio Coding 3
  78. Commercial name                          : Dolby Digital
  79. Codec ID                                 : A_AC3
  80. Duration                                 : 1 h 37 min
  81. Bit rate mode                            : Constant
  82. Bit rate                                 : 640 kb/s
  83. Channel(s)                               : 6 channels
  84. Channel layout                           : L R C LFE Ls Rs
  85. Sampling rate                            : 48.0 kHz
  86. Frame rate                               : 31.250 FPS (1536 SPF)
  87. Compression mode                         : Lossy
  88. Stream size                              : 445 MiB (2%)
  89. Title                                    : The.Doorman.2020.1080p.BluRay.REMUX.AVC.DTS-HD.MA.TrueHD.5.1-FGT
  90. Language                                 : English
  91. Service kind                             : Complete Main
  92. Default                                  : No
  93. Forced                                   : No
  94. Original source medium                   : Blu-ray
  95. Text #1
  96. ID                                       : 5
  97. Format                                   : UTF-8
  98. Codec ID                                 : S_TEXT/UTF8
  99. Codec ID/Info                            : UTF-8 Plain Text
  100. Duration                                 : 1 h 30 min
  101. Bit rate                                 : 48 b/s
  102. Count of elements                        : 1069
  103. Stream size                              : 32.0 KiB (0%)
  104. Title                                    : English-SRT
  105. Language                                 : English
  106. Default                                  : Yes
  107. Forced                                   : No
  108. Text #2
  109. ID                                       : 6
  110. ID in the original source medium         : 4608 (0x1200)
  111. Format                                   : PGS
  112. Muxing mode                              : zlib
  113. Codec ID                                 : S_HDMV/PGS
  114. Codec ID/Info                            : Picture based subtitle format used on BDs/HD-DVDs
  115. Duration                                 : 1 h 30 min
  116. Bit rate                                 : 30.1 kb/s
  117. Count of elements                        : 2154
  118. Stream size                              : 19.6 MiB (0%)
  119. Title                                    : English-PGS
  120. Language                                 : English
  121. Default                                  : No
  122. Forced                                   : No
  123. Original source medium                   : Blu-ray
  124. Text #3
  125. ID                                       : 7
  126. ID in the original source medium         : 4609 (0x1201)
  127. Format                                   : PGS
  128. Muxing mode                              : zlib
  129. Codec ID                                 : S_HDMV/PGS
  130. Codec ID/Info                            : Picture based subtitle format used on BDs/HD-DVDs
  131. Duration                                 : 1 h 31 min
  132. Bit rate                                 : 33.7 kb/s
  133. Count of elements                        : 2540
  134. Stream size                              : 22.0 MiB (0%)
  135. Title                                    : English-SDH-PGS
  136. Language                                 : English
  137. Default                                  : No
  138. Forced                                   : No
  139. Original source medium                   : Blu-ray
  140. Text #4
  141. ID                                       : 8
  142. ID in the original source medium         : 4610 (0x1202)
  143. Format                                   : PGS
  144. Muxing mode                              : zlib
  145. Codec ID                                 : S_HDMV/PGS
  146. Codec ID/Info                            : Picture based subtitle format used on BDs/HD-DVDs
  147. Duration                                 : 1 h 35 min
  148. Bit rate                                 : 26.1 kb/s
  149. Count of elements                        : 2050
  150. Stream size                              : 17.8 MiB (0%)
  151. Title                                    : French-PGS
  152. Language                                 : French
  153. Default                                  : No
  154. Forced                                   : No
  155. Original source medium                   : Blu-ray
  156. Text #5
  157. ID                                       : 9
  158. ID in the original source medium         : 4611 (0x1203)
  159. Format                                   : PGS
  160. Muxing mode                              : zlib
  161. Codec ID                                 : S_HDMV/PGS
  162. Codec ID/Info                            : Picture based subtitle format used on BDs/HD-DVDs
  163. Duration                                 : 1 h 35 min
  164. Bit rate                                 : 25.7 kb/s
  165. Count of elements                        : 2168
  166. Stream size                              : 17.6 MiB (0%)
  167. Title                                    : Spanish-PGS
  168. Language                                 : Spanish
  169. Default                                  : No
  170. Forced                                   : No
  171. Original source medium                   : Blu-ray
  172. Menu
  173. 00:00:00.000                             : en:Chapter 01
  174. 00:06:31.641                             : en:Chapter 02
  175. 00:10:30.921                             : en:Chapter 03
  176. 00:17:32.968                             : en:Chapter 04
  177. 00:22:31.308                             : en:Chapter 05
  178. 00:27:07.751                             : en:Chapter 06
  179. 00:34:40.328                             : en:Chapter 07
  180. 00:42:34.301                             : en:Chapter 08
  181. 00:48:29.239                             : en:Chapter 09
  182. 00:55:32.245                             : en:Chapter 10
  183. 00:59:49.877                             : en:Chapter 11
  184. 01:05:47.693                             : en:Chapter 12
  185. 01:10:58.087                             : en:Chapter 13
  186. 01:16:56.486                             : en:Chapter 14
  187. 01:21:18.707                             : en:Chapter 15
  188. 01:29:21.522                             : en:Chapter 16
复制代码






                                       
                                       

                                       
                                       
                                       




回复

使用道具 举报

懒得打字嘛,点击右侧快捷回复 【右侧内容,后台自定义】
您需要登录后才可以回帖 登录 | 立即加入

本版积分规则

Archiver|小黑屋| 蓝光电影网 |网站地图

Copyright © 2021 Comsenz Inc. Powered by 蓝光电影网

蓝光电影网

本站内容由用户自主分享和转载自互联网,转载目的在于传递更多信息,并不代表本网赞同其观点和对其真实性负责。

如有侵权、违反国家法律政策行为,请联系我们,我们会第一时间及时清除和处理!

举报反馈邮箱:[email protected]

快速回复 返回顶部 返回列表