找回密码

蓝光电影网

查看: 14|回复: 0

[剧情] 丑陋的美国人 The.Ugly.American.1963.1080p.BluRay.REMUX.AVC.DTS-HD.MA.2.0-FGT 20.67GB

[复制链接]
蓝光币
519
发表于 2019-9-5 09:13:44 | 显示全部楼层 |阅读模式


◎译  名 丑陋的美国人
◎片  名 The Ugly American
◎年  代 1963
◎产  地 美国
◎类  别 剧情
◎语  言 英语
◎上映日期 1963-04-02
◎IMDb评分  6.7/10 from 1707 users
◎IMDb链接  http://www.imdb.com/title/tt0056632
◎豆瓣评分 7.5/10 from 59 users
◎豆瓣链接 https://movie.douban.com/subject/1459571/
◎片  长 Germany: 115 分钟
◎导  演 George Englund
◎编  剧 斯图尔特·斯特恩 Stewart Stern
◎主  演 Marlon Brando
       Jocelyn Brando
       David Chow

◎标  签 美国 | 马龙·白兰度 | 美国电影 | 剧情 | MarlonBrando | 1963 | 文艺片 | 政治
◎简  介  
  这部布满人性省思的政治影片,是改编自威廉李德(William J. Lederer)与尤金波迪克(Eugene Burdick)合著的同名小说,听说这本小说是促使甘乃迪总统建立外洋战争军队的幕后推手。
  乔治.英格鲁德执导。美泰合作开辟高速公路遭共产党挑拔歇工,并因沙卡人灭亡而致使泰国境内暴乱。美改派麦奎(马龙.白兰度饰)出使泰国,麦与当地反动豪杰狄扬(冈田英次饰)为多年好友,狄扬主张沙卡由沙卡人自己作主,并否决辅弼昆西之独裁而广得民气。麦奎不满狄扬反美并误以为狄是共产党的一派,而苏俄、中共与北沙卡却死力撮合无条件支持狄扬。昆西向麦奎广告,狄扬实在并非共党,只是受共党操纵将遭刺杀,并愿与狄扬合作促进民主,可是狄扬还是遭到不幸,临终前令手下与昆西合作共求民主。本片在越南形式动乱时推出,颇见其现实意义,在表示人物心理活动上的描写非常细致,主题曲也颇能震动听心。
  1. Video
  2. ID                                       : 1
  3. Format                                   : AVC
  4. Format/Info                              : Advanced Video Codec
  5. Format profile                           : [email protected]
  6. Format settings                          : CABAC / 4 Ref Frames
  7. Format settings, CABAC                   : Yes
  8. Format settings, Reference frames        : 4 frames
  9. Codec ID                                 : V_MPEG4/ISO/AVC
  10. Duration                                 : 2 h 0 min
  11. Bit rate mode                            : Variable
  12. Bit rate                                 : 23.0 Mb/s
  13. Maximum bit rate                         : 30.0 Mb/s
  14. Width                                    : 1 920 pixels
  15. Height                                   : 1 080 pixels
  16. Display aspect ratio                     : 16:9
  17. Frame rate mode                          : Constant
  18. Frame rate                               : 23.976 (24000/1001) FPS
  19. Standard                                 : NTSC
  20. Color space                              : YUV
  21. Chroma subsampling                       : 4:2:0
  22. Bit depth                                : 8 bits
  23. Scan type                                : Progressive
  24. Bits/(Pixel*Frame)                       : 0.462
  25. Stream size                              : 19.3 GiB (93%)
  26. Title                                    : The.Ugly.American.1963.1080p.BluRay.REMUX.AVC.DTS-HD.MA.2.0-FGT
  27. Language                                 : English
  28. Default                                  : No
  29. Forced                                   : No
  30. Color range                              : Limited
  31. Color primaries                          : BT.709
  32. Transfer characteristics                 : BT.709
  33. Matrix coefficients                      : BT.709
  34. Audio
  35. ID                                       : 2
  36. Format                                   : DTS XLL
  37. Format/Info                              : Digital Theater Systems
  38. Commercial name                          : DTS-HD Master Audio
  39. Codec ID                                 : A_DTS
  40. Duration                                 : 2 h 0 min
  41. Bit rate mode                            : Variable
  42. Bit rate                                 : 1 629 kb/s
  43. Channel(s)                               : 2 channels
  44. Channel layout                           : L R
  45. Sampling rate                            : 48.0 kHz
  46. Frame rate                               : 93.750 FPS (512 SPF)
  47. Bit depth                                : 24 bits
  48. Compression mode                         : Lossless
  49. Stream size                              : 1.37 GiB (7%)
  50. Title                                    : The.Ugly.American.1963.1080p.BluRay.REMUX.AVC.DTS-HD.MA.2.0-FGT
  51. Language                                 : English
  52. Default                                  : Yes
  53. Forced                                   : No
  54. Text
  55. ID                                       : 3
  56. Format                                   : PGS
  57. Muxing mode                              : zlib
  58. Codec ID                                 : S_HDMV/PGS
  59. Codec ID/Info                            : Picture based subtitle format used on BDs/HD-DVDs
  60. Duration                                 : 1 h 59 min
  61. Bit rate                                 : 26.6 kb/s
  62. Count of elements                        : 3645
  63. Stream size                              : 22.8 MiB (0%)
  64. Title                                    : English-PGS
  65. Language                                 : English
  66. Default                                  : Yes
  67. Forced                                   : No
  68. Menu
  69. 00:00:00.000                             : en:Chapter 01
  70. 00:06:54.831                             : en:Chapter 02
  71. 00:19:02.099                             : en:Chapter 03
  72. 00:34:53.966                             : en:Chapter 04
  73. 00:48:30.490                             : en:Chapter 05
  74. 00:59:55.300                             : en:Chapter 06
  75. 01:14:04.398                             : en:Chapter 07
  76. 01:25:14.567                             : en:Chapter 08
  77. 01:32:40.304                             : en:Chapter 09
  78. 01:45:59.353                             : en:Chapter 10
  79. 01:56:34.278                             : en:Chapter 11
复制代码






                                       
                                       

                                       
                                       
                                       




回复

使用道具 举报

懒得打字嘛,点击右侧快捷回复 【右侧内容,后台自定义】
您需要登录后才可以回帖 登录 | 立即加入

本版积分规则

Archiver|小黑屋| 蓝光电影网 |网站地图

Copyright © 2021 Comsenz Inc. Powered by 蓝光电影网

蓝光电影网

本站内容由用户自主分享和转载自互联网,转载目的在于传递更多信息,并不代表本网赞同其观点和对其真实性负责。

如有侵权、违反国家法律政策行为,请联系我们,我们会第一时间及时清除和处理!

举报反馈邮箱:[email protected]

快速回复 返回顶部 返回列表