找回密码

蓝光电影网

查看: 3|回复: 0

[其他] 福音 Godspell.1973.1080p.BluRay.x264-PSYCHD 10.71GB

[复制链接]
蓝光币
515
发表于 2020-9-21 15:34:07 | 显示全部楼层 |阅读模式


◎译  名 福音/Godspell: A Musical Based on the Gospel According to St. Matthew
◎片  名 Godspell
◎年  代 1973
◎产  地 美国
◎类  别 歌舞
◎语  言 英语,希伯来语,西班牙语
◎上映日期 1973-03-21
◎IMDb评分  6.5/10 from 3080 users
◎IMDb链接  https://www.imdb.com/title/tt0070121/
◎豆瓣评分 /10 from 0 users
◎豆瓣链接 https://movie.douban.com/subject/1301082/
◎片  长 103 分钟
◎导  演 大卫·格瑞尼 David Greene
◎编  剧 大卫·格瑞尼 David Greene / John-Michael Tebelak
◎主  演 David Haskell
       Merrell Jackson
       Joanne Jonas
       Joe Madden
       维克多·加博 Victor Garber
       John-Michael Tebelak
       林恩·瑟格本 Lynne Thigpen
       Jerry Sroka
       Burt Richards
       Gilmer McCormick
       Robin Lamont
       Jeffrey Mylett
◎标  签 美国 | 音乐剧 | 歌舞 | VictorGarber | 1973 | 音乐 | 青春 | 美国电影
◎简  介


  A modern-day version of the gospels, opening with John the Baptist calling a disparate group of young New Yorkers from their workaday lives to follow and learn from Jesus. They form a roving acting troupe that enacts the parables through song and dance, comedy, and mime. Jesus' ministry ends with a last supper, his Crucifixion in a junkyard, and, the following morning, his body being carried aloft by his apostles back into the world of the living on the streets of New York.
◎获奖情况
  第26届戛纳电影节 ?(1973)
  主比赛单元金棕榈奖(提名) 大卫·格瑞尼
  1. Video
  2. ID                                       : 1
  3. Format                                   : AVC
  4. Format/Info                              : Advanced Video Codec
  5. Format profile                           : [email protected]
  6. Format settings                          : CABAC / 4 Ref Frames
  7. Format settings, CABAC                   : Yes
  8. Format settings, Reference frames        : 4 frames
  9. Codec ID                                 : V_MPEG4/ISO/AVC
  10. Duration                                 : 1 h 41 min
  11. Bit rate                                 : 14.3 Mb/s
  12. Width                                    : 1 920 pixels
  13. Height                                   : 1 038 pixels
  14. Display aspect ratio                     : 1.85:1
  15. Frame rate mode                          : Constant
  16. Frame rate                               : 23.976 (24000/1001/189150) FPS
  17. Color space                              : YUV
  18. Chroma subsampling                       : 4:2:0
  19. Bit depth                                : 8 bits
  20. Scan type                                : Progressive
  21. Bits/(Pixel*Frame)                       : 0.298
  22. Stream size                              : 10.1 GiB (95%)
  23. Writing library                          : x264 core 161 r3018 db0d417
  24. Encoding settings                        : cabac=1 / ref=4 / deblock=1:-3:-3 / analyse=0x3:0x133 / me=umh / subme=9 / psy=1 / psy_rd=1.12:0.00 / mixed_ref=1 / me_range=32 / chroma_me=1 / trellis=2 / 8x8dct=1 / cqm=0 / deadzone=21,11 / fast_pskip=0 / chroma_qp_offset=-2 / threads=32 / lookahead_threads=2 / sliced_threads=0 / nr=0 / decimate=0 / interlaced=0 / bluray_compat=0 / constrained_intra=0 / bframes=3 / b_pyramid=2 / b_adapt=2 / b_bias=0 / direct=3 / weightb=1 / open_gop=0 / weightp=2 / keyint=250 / keyint_min=23 / scenecut=40 / intra_refresh=0 / rc=crf / mbtree=0 / crf=19.9 / qcomp=0.60 / qpmin=0 / qpmax=69 / qpstep=4 / ip_ratio=1.40 / pb_ratio=1.30 / aq=3:0.70
  25. Default                                  : Yes
  26. Forced                                   : No
  27. Color range                              : Limited
  28. Matrix coefficients                      : BT.709

  29. Audio #1
  30. ID                                       : 2
  31. Format                                   : FLAC
  32. Format/Info                              : Free Lossless Audio Codec
  33. Codec ID                                 : A_FLAC
  34. Duration                                 : 1 h 41 min
  35. Bit rate mode                            : Variable
  36. Bit rate                                 : 681 kb/s
  37. Channel(s)                               : 2 channels
  38. Channel layout                           : L R
  39. Sampling rate                            : 48.0 kHz
  40. Frame rate                               : 11.719 FPS (4096 SPF)
  41. Bit depth                                : 24 bits
  42. Compression mode                         : Lossless
  43. Stream size                              : 496 MiB (5%)
  44. Title                                    : Flac 2.0
  45. Writing library                          : libFLAC 1.2.1 (UTC 2007-09-17)
  46. Language                                 : English
  47. Default                                  : Yes
  48. Forced                                   : No

  49. Audio #2
  50. ID                                       : 6
  51. Format                                   : AAC LC
  52. Format/Info                              : Advanced Audio Codec Low Complexity
  53. Codec ID                                 : A_AAC-2
  54. Duration                                 : 1 h 41 min
  55. Bit rate                                 : 106 kb/s
  56. Channel(s)                               : 2 channels
  57. Channel layout                           : L R
  58. Sampling rate                            : 48.0 kHz
  59. Frame rate                               : 46.875 FPS (1024 SPF)
  60. Compression mode                         : Lossy
  61. Delay relative to video                  : 9 ms
  62. Stream size                              : 76.8 MiB (1%)
  63. Title                                    : Commentary by film historian Lee Gambin
  64. Language                                 : English
  65. Default                                  : No
  66. Forced                                   : No

  67. Text #1
  68. ID                                       : 3
  69. Format                                   : UTF-8
  70. Codec ID                                 : S_TEXT/UTF8
  71. Codec ID/Info                            : UTF-8 Plain Text
  72. Duration                                 : 1 h 39 min
  73. Bit rate                                 : 55 b/s
  74. Count of elements                        : 1188
  75. Stream size                              : 40.6 KiB (0%)
  76. Title                                    : Stripped SRT
  77. Language                                 : English
  78. Default                                  : No
  79. Forced                                   : No

  80. Text #2
  81. ID                                       : 4
  82. Format                                   : UTF-8
  83. Codec ID                                 : S_TEXT/UTF8
  84. Codec ID/Info                            : UTF-8 Plain Text
  85. Duration                                 : 1 h 39 min
  86. Bit rate                                 : 60 b/s
  87. Count of elements                        : 1366
  88. Stream size                              : 44.4 KiB (0%)
  89. Title                                    : SDH SRT
  90. Language                                 : English
  91. Default                                  : No
  92. Forced                                   : No

  93. Text #3
  94. ID                                       : 5
  95. Format                                   : PGS
  96. Muxing mode                              : zlib
  97. Codec ID                                 : S_HDMV/PGS
  98. Codec ID/Info                            : Picture based subtitle format used on BDs/HD-DVDs
  99. Duration                                 : 1 h 39 min
  100. Bit rate                                 : 31.1 kb/s
  101. Count of elements                        : 2732
  102. Stream size                              : 22.2 MiB (0%)
  103. Title                                    : English SDH
  104. Language                                 : English
  105. Default                                  : No
  106. Forced                                   : No

  107. Menu
  108. 00:00:00.000                             : en:Chapter 01
  109. 00:10:00.892                             : en:Chapter 02
  110. 00:20:01.784                             : en:Chapter 03
  111. 00:30:02.634                             : en:Chapter 04
  112. 00:40:03.151                             : en:Chapter 05
  113. 00:50:03.792                             : en:Chapter 06
  114. 01:00:03.809                             : en:Chapter 07
  115. 01:10:05.118                             : en:Chapter 08
  116. 01:20:05.009                             : en:Chapter 09
  117. 01:30:06.192                             : en:Chapter 10
  118. 01:40:06.250                             : en:Chapter 11
  119. 01:41:44.473                             : en:Chapter 12
复制代码




                                       
                                       

                                       
                                       
                                       




回复

使用道具 举报

懒得打字嘛,点击右侧快捷回复 【右侧内容,后台自定义】
您需要登录后才可以回帖 登录 | 立即加入

本版积分规则

Archiver|小黑屋| 蓝光电影网 |网站地图

Copyright © 2021 Comsenz Inc. Powered by 蓝光电影网

蓝光电影网

本站内容由用户自主分享和转载自互联网,转载目的在于传递更多信息,并不代表本网赞同其观点和对其真实性负责。

如有侵权、违反国家法律政策行为,请联系我们,我们会第一时间及时清除和处理!

举报反馈邮箱:[email protected]

快速回复 返回顶部 返回列表