找回密码

蓝光电影网

查看: 17|回复: 0

[剧情] 秀后人生 After.the.Reality.2016.1080p.BluRay.REMUX.AVC.DD5.1-FGT 12.76GB

[复制链接]
蓝光币
515
发表于 2019-9-3 18:48:40 | 显示全部楼层 |阅读模式


◎译  名 秀先人生
◎片  名 After the Reality
◎年  代 2015
◎产  地 美国
◎类  别 剧情 / 笑剧 / 家庭
◎语  言 英语
◎IMDb评分  4.3/10 from 295 users
◎IMDb链接  http://www.imdb.com/title/tt3794392
◎豆瓣评分 0/10 from 0 users
◎豆瓣链接 https://movie.douban.com/subject/26599823/
◎片  长 85分钟
◎导  演 David Anderson
◎编  剧 David Anderson
◎主  演 马修·莫里森 Matthew Morrison
       萨拉·乔克 Sarah Chalke
       乔恩·多尔 Jon Dore
       劳拉·贝尔·邦迪 Laura Bell Bundy
       胡安·巴勃罗·迪·帕斯 Juan Pablo Di Pace
       艾赛亚·穆斯塔法 Isaiah Mustafa
       Tony Cavalero

◎标  签 美国 | 大学
◎简  介  
  由于父亲的忽然归天,一个“单身”式的真人秀参赛者的生活忽然堕入了紊乱,是以他过早地退出真人秀舞台,重新和他的妹妹还有她死后的家庭建立起了联系。
  1. Video
  2. ID                                       : 1
  3. Format                                   : AVC
  4. Format/Info                              : Advanced Video Codec
  5. Format profile                           : [email protected]
  6. Format settings                          : CABAC / 2 Ref Frames
  7. Format settings, CABAC                   : Yes
  8. Format settings, Reference frames        : 2 frames
  9. Codec ID                                 : V_MPEG4/ISO/AVC
  10. Duration                                 : 1 h 27 min
  11. Bit rate mode                            : Variable
  12. Bit rate                                 : 20.5 Mb/s
  13. Maximum bit rate                         : 35.2 Mb/s
  14. Width                                    : 1 920 pixels
  15. Height                                   : 1 080 pixels
  16. Display aspect ratio                     : 16:9
  17. Frame rate mode                          : Constant
  18. Frame rate                               : 23.976 (24000/1001) FPS
  19. Color space                              : YUV
  20. Chroma subsampling                       : 4:2:0
  21. Bit depth                                : 8 bits
  22. Scan type                                : Progressive
  23. Bits/(Pixel*Frame)                       : 0.412
  24. Stream size                              : 12.5 GiB (98%)
  25. Title                                    : After.the.Reality.2016.1080p.BluRay.REMUX.AVC.DD5.1-FGT
  26. Language                                 : English
  27. Default                                  : No
  28. Forced                                   : No
  29. Audio
  30. ID                                       : 2
  31. Format                                   : AC-3
  32. Format/Info                              : Audio Coding 3
  33. Commercial name                          : Dolby Digital
  34. Codec ID                                 : A_AC3
  35. Duration                                 : 1 h 27 min
  36. Bit rate mode                            : Constant
  37. Bit rate                                 : 384 kb/s
  38. Channel(s)                               : 6 channels
  39. Channel layout                           : L R C LFE Ls Rs
  40. Sampling rate                            : 48.0 kHz
  41. Frame rate                               : 31.250 FPS (1536 SPF)
  42. Bit depth                                : 16 bits
  43. Compression mode                         : Lossy
  44. Stream size                              : 241 MiB (2%)
  45. Title                                    : After.the.Reality.2016.1080p.BluRay.REMUX.AVC.DD5.1-FGT
  46. Language                                 : English
  47. Service kind                             : Complete Main
  48. Default                                  : Yes
  49. Forced                                   : No
  50. Menu
  51. 00:00:00.000                             : en:Chapter 01
  52. 00:02:36.030                             : en:Chapter 02
  53. 00:20:16.173                             : en:Chapter 03
  54. 00:38:47.241                             : en:Chapter 04
  55. 00:54:37.482                             : en:Chapter 05
  56. 01:11:54.685                             : en:Chapter 06
  57. 01:25:05.266                             : en:Chapter 07
复制代码






                                       
                                       

                                       
                                       
                                       




回复

使用道具 举报

懒得打字嘛,点击右侧快捷回复 【右侧内容,后台自定义】
您需要登录后才可以回帖 登录 | 立即加入

本版积分规则

Archiver|小黑屋| 蓝光电影网 |网站地图

Copyright © 2021 Comsenz Inc. Powered by 蓝光电影网

蓝光电影网

本站内容由用户自主分享和转载自互联网,转载目的在于传递更多信息,并不代表本网赞同其观点和对其真实性负责。

如有侵权、违反国家法律政策行为,请联系我们,我们会第一时间及时清除和处理!

举报反馈邮箱:[email protected]

快速回复 返回顶部 返回列表