找回密码

蓝光电影网

查看: 40|回复: 0

[动作] 沉默/沉默不语 The.Silencing.2020.1080p.BluRay.REMUX.AVC.DTS-HD.MA.5.1-FGT 17.72GB

[复制链接]
蓝光币
515
发表于 2020-9-30 18:19:14 | 显示全部楼层 |阅读模式


◎译  名 沉默/沉默不语
◎片  名 The Silencing
◎年  代 2020
◎产  地 加拿大,美国
◎类  别 行动 / 惊悚 / 犯罪
◎语  言 英语
◎上映日期 2020-07-16(美国)
◎IMDb评分  6.1/10 from 6300 users
◎IMDb链接  https://www.imdb.com/title/tt7149730/
◎豆瓣评分 6.1/10 from 805 users
◎豆瓣链接 https://movie.douban.com/subject/30216114/
◎片  长 94分钟
◎导  演 罗宾·普劳特 Robin Pront
◎编  剧 米卡·拉纳姆 Micah Ranum
◎主  演 尼古拉·科斯特-瓦尔道 Nikolaj Coster-Waldau
       卡勒布·埃尔斯沃斯·克拉克 Caleb Ellsworth-Clark
       乔什·克鲁达斯 Josh Cruddas
       安娜贝拉·沃丽丝 Annabelle Wallis
       扎恩·迈克拉农 Zahn McClarnon
       赫洛·费因斯-提芬 Hero Fiennes Tiffin
       丽莎·克罗马蒂 Lisa Cromarty
       利兰·阿西内瓦 Leland Assinewai
       凯拉·杜蒙 Kayla Dumont
       肖恩·史姑娘 Shaun Smyth
       杰森·贾兹拉维 Jason Jazrawy
       布里埃尔·罗比拉德 Brielle Robillard
       梅兰妮·斯科洛凡诺 Melanie Scrofano
       夏洛特·林赛·马荣 Charlotte Lindsay Marron
       帕特里克·加洛 Patrick Garrow
       莎农·卡诺瓦斯 Sharon Canovas
◎标  签 犯罪 | 惊悚 | 2020 | 美国 | 行动 | 剧情 | 悬疑 | 谋杀
◎简  介


  一位在野活泼物庇护区生活的猎人被迫卷入了一场致命的猫捉老鼠的游戏,他和当地治安官动身去追踪一位凶手,而凶手能够正是几年前绑架了他的女儿的奥秘人。
  1. Video
  2. ID                                       : 1
  3. ID in the original source medium         : 4113 (0x1011)
  4. Format                                   : AVC
  5. Format/Info                              : Advanced Video Codec
  6. Format profile                           : [email protected]
  7. Format settings                          : CABAC / 4 Ref Frames
  8. Format settings, CABAC                   : Yes
  9. Format settings, Reference frames        : 4 frames
  10. Format settings, GOP                     : M=3, N=12
  11. Codec ID                                 : V_MPEG4/ISO/AVC
  12. Duration                                 : 1 h 34 min
  13. Bit rate mode                            : Variable
  14. Bit rate                                 : 23.2 Mb/s
  15. Maximum bit rate                         : 37.0 Mb/s
  16. Width                                    : 1 920 pixels
  17. Height                                   : 1 080 pixels
  18. Display aspect ratio                     : 16:9
  19. Frame rate mode                          : Constant
  20. Frame rate                               : 23.976 (24000/1001/189150) FPS
  21. Color space                              : YUV
  22. Chroma subsampling                       : 4:2:0
  23. Bit depth                                : 8 bits
  24. Scan type                                : Progressive
  25. Bits/(Pixel*Frame)                       : 0.467
  26. Stream size                              : 15.3 GiB (87%)
  27. Title                                    : The.Silencing.2020.1080p.BluRay.REMUX.AVC.DTS-HD.MA.5.1-FGT
  28. Language                                 : English
  29. Default                                  : No
  30. Forced                                   : No
  31. Original source medium                   : Blu-ray
  32. Audio
  33. ID                                       : 2
  34. ID in the original source medium         : 4352 (0x1100)
  35. Format                                   : DTS XLL
  36. Format/Info                              : Digital Theater Systems
  37. Commercial name                          : DTS-HD Master Audio
  38. Codec ID                                 : A_DTS
  39. Duration                                 : 1 h 34 min
  40. Bit rate mode                            : Variable
  41. Bit rate                                 : 3 568 kb/s
  42. Channel(s)                               : 6 channels
  43. Channel layout                           : C L R Ls Rs LFE
  44. Sampling rate                            : 48.0 kHz
  45. Frame rate                               : 93.750 FPS (512 SPF)
  46. Bit depth                                : 24 bits
  47. Compression mode                         : Lossless
  48. Stream size                              : 2.36 GiB (13%)
  49. Title                                    : The.Silencing.2020.1080p.BluRay.REMUX.AVC.DTS-HD.MA.5.1-FGT
  50. Language                                 : English
  51. Default                                  : Yes
  52. Forced                                   : No
  53. Original source medium                   : Blu-ray
  54. Text #1
  55. ID                                       : 3
  56. Format                                   : UTF-8
  57. Codec ID                                 : S_TEXT/UTF8
  58. Codec ID/Info                            : UTF-8 Plain Text
  59. Duration                                 : 1 h 25 min
  60. Bit rate                                 : 29 b/s
  61. Count of elements                        : 657
  62. Stream size                              : 18.3 KiB (0%)
  63. Title                                    : English-SRT
  64. Language                                 : English
  65. Default                                  : Yes
  66. Forced                                   : No
  67. Text #2
  68. ID                                       : 4
  69. ID in the original source medium         : 4608 (0x1200)
  70. Format                                   : PGS
  71. Muxing mode                              : zlib
  72. Codec ID                                 : S_HDMV/PGS
  73. Codec ID/Info                            : Picture based subtitle format used on BDs/HD-DVDs
  74. Duration                                 : 1 h 25 min
  75. Bit rate                                 : 22.2 kb/s
  76. Count of elements                        : 1662
  77. Stream size                              : 13.6 MiB (0%)
  78. Title                                    : English-PGS
  79. Language                                 : English
  80. Default                                  : No
  81. Forced                                   : No
  82. Original source medium                   : Blu-ray
  83. Text #3
  84. ID                                       : 5
  85. ID in the original source medium         : 4609 (0x1201)
  86. Format                                   : PGS
  87. Muxing mode                              : zlib
  88. Codec ID                                 : S_HDMV/PGS
  89. Codec ID/Info                            : Picture based subtitle format used on BDs/HD-DVDs
  90. Duration                                 : 1 h 30 min
  91. Bit rate                                 : 17.5 kb/s
  92. Count of elements                        : 1242
  93. Stream size                              : 11.3 MiB (0%)
  94. Title                                    : Spanish-PGS
  95. Language                                 : Spanish
  96. Default                                  : No
  97. Forced                                   : No
  98. Original source medium                   : Blu-ray
  99. Menu
  100. 00:00:00.000                             : en:Chapter 01
  101. 00:04:47.453                             : en:Chapter 02
  102. 00:09:15.721                             : en:Chapter 03
  103. 00:12:39.800                             : en:Chapter 04
  104. 00:17:16.410                             : en:Chapter 05
  105. 00:22:32.476                             : en:Chapter 06
  106. 00:28:47.058                             : en:Chapter 07
  107. 00:34:04.250                             : en:Chapter 08
  108. 00:41:10.759                             : en:Chapter 09
  109. 00:47:53.245                             : en:Chapter 10
  110. 00:54:38.858                             : en:Chapter 11
  111. 00:59:10.380                             : en:Chapter 12
  112. 01:05:07.612                             : en:Chapter 13
  113. 01:10:54.959                             : en:Chapter 14
  114. 01:17:58.090                             : en:Chapter 15
  115. 01:26:57.712                             : en:Chapter 16
复制代码






                                       
                                       

                                       
                                       
                                       




回复

使用道具 举报

懒得打字嘛,点击右侧快捷回复 【右侧内容,后台自定义】
您需要登录后才可以回帖 登录 | 立即加入

本版积分规则

Archiver|小黑屋| 蓝光电影网 |网站地图

Copyright © 2021 Comsenz Inc. Powered by 蓝光电影网

蓝光电影网

本站内容由用户自主分享和转载自互联网,转载目的在于传递更多信息,并不代表本网赞同其观点和对其真实性负责。

如有侵权、违反国家法律政策行为,请联系我们,我们会第一时间及时清除和处理!

举报反馈邮箱:[email protected]

快速回复 返回顶部 返回列表