找回密码

蓝光电影网

查看: 14|回复: 0

[剧情] 九龍不敗 Invincible.Dragon.2019.CHINESE.1080p.BluRay.REMUX.AVC.DTS-HD.MA.TrueHD.5.1-FGT 24.86GB

[复制链接]
蓝光币
515
发表于 2019-9-3 18:46:41 | 显示全部楼层 |阅读模式


◎译  名 九龙不败 / Dragon Tattoo / The Invincible Dragon
◎片  名 九龍不敗
◎年  代 2019
◎产  地 中国香港 / 中国大陆
◎类  别 剧情 / 行动 / 犯罪
◎语  言 粤语 / 英语 / 汉语普通话
◎上映日期 2019-06-20(中国香港) / 2019-07-02(中国大陆)
◎IMDb评分  4.4/10 from 54 users
◎IMDb链接  http://www.imdb.com/title/tt6329716
◎豆瓣评分 3.1/10 from 5420 users
◎豆瓣链接 https://movie.douban.com/subject/26796665/
◎片  长 100分钟
◎导  演 陈果 Fruit Chan
◎编  剧 陈果 Fruit Chan / 林纪陶 Kee-To Lam
◎主  演 张晋 Max Zhang
       Anderson Silva
       郑嘉颖 Kevin Cheng
       刘心悠 Annie Liu
       邓丽欣 Stephy Tang
       陈钰芸 Juju Chan
       周国贤 Endy Chow
       吴岱融 Hugo Ng Doi-Yung
       吴耀汉 Richard Ng
       吴嘉龙 Carl Wu
       罗孝勇 Sheldon Lo
       张松枝 Deno Cheung
       周子扬 Ziyang Zhou
       廖骏雄 Chun Hung Liao
       方志駒 Vernon Fong

◎标  签 行动 | 香港 | 犯罪 | 警匪 | 烂片 | 功夫 | 2018 | 剧情
◎简  介  
  警探九龙(张晋 饰) ,查案方式奇异狠辣却屡建奇功,是叱咤香港警界的精英干探, 但他处事独断爆裂,又被警队视为“偏执狂人”。九龙受命观察一桩妙龄女警连环被凶杀案,用尽手段后不但毫无线索, 他的警花未婚妻方宁(邓丽欣 饰)居然也在这场抓捕行动中意外失落。在爱与痛的边沿挣扎的九龙,忽然发现女警连环遇害只是第一步,凶手还有着加倍血腥的诡计,自己和未婚妻居然也被算计其中。此时澳门再度发生女警被杀案,此次的作案手法加倍使人发指,但凶手似乎故意留下了线索,是危险圈套还是复仇曙光?九龙义无返顾动身,在好友王梦奇(刘心悠 饰)及国际拳王冼力山(Anderson The Spider Silva 饰)的辅佐下, 与澳门警司曹志德(郑嘉颖 饰)联手展开观察。魔高一丈,道高多少!血债血偿之前,就算流干最初一滴血,也要誓不罢休。
  1. Video
  2. ID                                       : 1
  3. Format                                   : AVC
  4. Format/Info                              : Advanced Video Codec
  5. Format profile                           : [email protected]
  6. Format settings                          : CABAC / 4 Ref Frames
  7. Format settings, CABAC                   : Yes
  8. Format settings, Reference frames        : 4 frames
  9. Codec ID                                 : V_MPEG4/ISO/AVC
  10. Duration                                 : 1 h 38 min
  11. Bit rate mode                            : Variable
  12. Bit rate                                 : 19.5 Mb/s
  13. Maximum bit rate                         : 20.0 Mb/s
  14. Width                                    : 1 920 pixels
  15. Height                                   : 1 080 pixels
  16. Display aspect ratio                     : 16:9
  17. Frame rate mode                          : Constant
  18. Frame rate                               : 24.000 FPS
  19. Color space                              : YUV
  20. Chroma subsampling                       : 4:2:0
  21. Bit depth                                : 8 bits
  22. Scan type                                : Progressive
  23. Bits/(Pixel*Frame)                       : 0.391
  24. Stream size                              : 13.4 GiB (54%)
  25. Title                                    : Invincible.Dragon.2019.CHINESE.1080p.BluRay.REMUX.AVC.DTS-HD.MA.TrueHD.5.1-FGT
  26. Language                                 : Chinese
  27. Default                                  : No
  28. Forced                                   : No
  29. Audio #1
  30. ID                                       : 2
  31. Format                                   : MLP FBA
  32. Format/Info                              : Meridian Lossless Packing FBA
  33. Commercial name                          : Dolby TrueHD
  34. Codec ID                                 : A_TRUEHD
  35. Duration                                 : 1 h 38 min
  36. Bit rate mode                            : Variable
  37. Bit rate                                 : 3 032 kb/s
  38. Maximum bit rate                         : 5 850 kb/s
  39. Channel(s)                               : 6 channels
  40. Channel layout                           : L R C LFE Ls Rs
  41. Sampling rate                            : 96.0 kHz
  42. Frame rate                               : 1 200.000 FPS (80 SPF)
  43. Compression mode                         : Lossless
  44. Stream size                              : 2.09 GiB (8%)
  45. Title                                    : Invincible.Dragon.2019.CHINESE.1080p.BluRay.REMUX.AVC.DTS-HD.MA.TrueHD.5.1-FGT
  46. Language                                 : Chinese
  47. Default                                  : Yes
  48. Forced                                   : No
  49. Audio #2
  50. ID                                       : 3
  51. Format                                   : DTS XLL
  52. Format/Info                              : Digital Theater Systems
  53. Commercial name                          : DTS-HD Master Audio
  54. Codec ID                                 : A_DTS
  55. Duration                                 : 1 h 38 min
  56. Bit rate mode                            : Variable
  57. Bit rate                                 : 4 556 kb/s
  58. Channel(s)                               : 6 channels
  59. Channel layout                           : C L R Ls Rs LFE
  60. Sampling rate                            : 96.0 kHz
  61. Frame rate                               : 187.500 FPS (512 SPF)
  62. Bit depth                                : 24 bits
  63. Compression mode                         : Lossless
  64. Stream size                              : 3.14 GiB (13%)
  65. Title                                    : Invincible.Dragon.2019.CHINESE.1080p.BluRay.REMUX.AVC.DTS-HD.MA.TrueHD.5.1-FGT
  66. Language                                 : Chinese
  67. Default                                  : No
  68. Forced                                   : No
  69. Audio #3
  70. ID                                       : 4
  71. Format                                   : AC-3
  72. Format/Info                              : Audio Coding 3
  73. Commercial name                          : Dolby Digital
  74. Codec ID                                 : A_AC3
  75. Duration                                 : 1 h 38 min
  76. Bit rate mode                            : Constant
  77. Bit rate                                 : 640 kb/s
  78. Channel(s)                               : 6 channels
  79. Channel layout                           : L R C LFE Ls Rs
  80. Sampling rate                            : 48.0 kHz
  81. Frame rate                               : 31.250 FPS (1536 SPF)
  82. Bit depth                                : 16 bits
  83. Compression mode                         : Lossy
  84. Stream size                              : 451 MiB (2%)
  85. Title                                    : Invincible.Dragon.2019.CHINESE.1080p.BluRay.REMUX.AVC.DTS-HD.MA.TrueHD.5.1-FGT
  86. Language                                 : Chinese
  87. Service kind                             : Complete Main
  88. Default                                  : No
  89. Forced                                   : No
  90. Audio #4
  91. ID                                       : 5
  92. Format                                   : MLP FBA
  93. Format/Info                              : Meridian Lossless Packing FBA
  94. Commercial name                          : Dolby TrueHD
  95. Codec ID                                 : A_TRUEHD
  96. Duration                                 : 1 h 38 min
  97. Bit rate mode                            : Variable
  98. Bit rate                                 : 3 034 kb/s
  99. Maximum bit rate                         : 5 778 kb/s
  100. Channel(s)                               : 6 channels
  101. Channel layout                           : L R C LFE Ls Rs
  102. Sampling rate                            : 96.0 kHz
  103. Frame rate                               : 1 200.000 FPS (80 SPF)
  104. Compression mode                         : Lossless
  105. Stream size                              : 2.09 GiB (8%)
  106. Title                                    : Invincible.Dragon.2019.CHINESE.1080p.BluRay.REMUX.AVC.DTS-HD.MA.TrueHD.5.1-FGT
  107. Language                                 : Chinese
  108. Default                                  : No
  109. Forced                                   : No
  110. Audio #5
  111. ID                                       : 6
  112. Format                                   : DTS XLL
  113. Format/Info                              : Digital Theater Systems
  114. Commercial name                          : DTS-HD Master Audio
  115. Codec ID                                 : A_DTS
  116. Duration                                 : 1 h 38 min
  117. Bit rate mode                            : Variable
  118. Bit rate                                 : 4 553 kb/s
  119. Channel(s)                               : 6 channels
  120. Channel layout                           : C L R Ls Rs LFE
  121. Sampling rate                            : 96.0 kHz
  122. Frame rate                               : 187.500 FPS (512 SPF)
  123. Bit depth                                : 24 bits
  124. Compression mode                         : Lossless
  125. Stream size                              : 3.14 GiB (13%)
  126. Title                                    : Invincible.Dragon.2019.CHINESE.1080p.BluRay.REMUX.AVC.DTS-HD.MA.TrueHD.5.1-FGT
  127. Language                                 : Chinese
  128. Default                                  : No
  129. Forced                                   : No
  130. Audio #6
  131. ID                                       : 7
  132. Format                                   : AC-3
  133. Format/Info                              : Audio Coding 3
  134. Commercial name                          : Dolby Digital
  135. Codec ID                                 : A_AC3
  136. Duration                                 : 1 h 38 min
  137. Bit rate mode                            : Constant
  138. Bit rate                                 : 640 kb/s
  139. Channel(s)                               : 6 channels
  140. Channel layout                           : L R C LFE Ls Rs
  141. Sampling rate                            : 48.0 kHz
  142. Frame rate                               : 31.250 FPS (1536 SPF)
  143. Bit depth                                : 16 bits
  144. Compression mode                         : Lossy
  145. Stream size                              : 451 MiB (2%)
  146. Title                                    : Invincible.Dragon.2019.CHINESE.1080p.BluRay.REMUX.AVC.DTS-HD.MA.TrueHD.5.1-FGT
  147. Language                                 : Chinese
  148. Service kind                             : Complete Main
  149. Default                                  : No
  150. Forced                                   : No
  151. Text #1
  152. ID                                       : 8
  153. Format                                   : UTF-8
  154. Codec ID                                 : S_TEXT/UTF8
  155. Codec ID/Info                            : UTF-8 Plain Text
  156. Duration                                 : 1 h 34 min
  157. Bit rate                                 : 50 b/s
  158. Count of elements                        : 1378
  159. Stream size                              : 35.2 KiB (0%)
  160. Title                                    : English-SRT
  161. Language                                 : English
  162. Default                                  : Yes
  163. Forced                                   : No
  164. Text #2
  165. ID                                       : 9
  166. Format                                   : PGS
  167. Muxing mode                              : zlib
  168. Codec ID                                 : S_HDMV/PGS
  169. Codec ID/Info                            : Picture based subtitle format used on BDs/HD-DVDs
  170. Duration                                 : 1 h 34 min
  171. Bit rate                                 : 33.6 kb/s
  172. Count of elements                        : 2320
  173. Stream size                              : 22.8 MiB (0%)
  174. Title                                    : English-PGS
  175. Language                                 : English
  176. Default                                  : No
  177. Forced                                   : No
  178. Text #3
  179. ID                                       : 10
  180. Format                                   : PGS
  181. Muxing mode                              : zlib
  182. Codec ID                                 : S_HDMV/PGS
  183. Codec ID/Info                            : Picture based subtitle format used on BDs/HD-DVDs
  184. Duration                                 : 1 h 34 min
  185. Bit rate                                 : 32.5 kb/s
  186. Count of elements                        : 2320
  187. Stream size                              : 22.0 MiB (0%)
  188. Title                                    : Chinese-PGS
  189. Language                                 : Chinese
  190. Default                                  : No
  191. Forced                                   : No
  192. Text #4
  193. ID                                       : 11
  194. Format                                   : PGS
  195. Muxing mode                              : zlib
  196. Codec ID                                 : S_HDMV/PGS
  197. Codec ID/Info                            : Picture based subtitle format used on BDs/HD-DVDs
  198. Duration                                 : 1 h 34 min
  199. Bit rate                                 : 30.2 kb/s
  200. Count of elements                        : 2320
  201. Stream size                              : 20.5 MiB (0%)
  202. Title                                    : Chinese-PGS
  203. Language                                 : Chinese
  204. Default                                  : No
  205. Forced                                   : No
  206. Menu
  207. 00:00:00.000                             : en:Chapter 01
  208. 00:05:57.541                             : en:Chapter 02
  209. 00:11:06.041                             : en:Chapter 03
  210. 00:15:39.458                             : en:Chapter 04
  211. 00:20:26.833                             : en:Chapter 05
  212. 00:23:31.583                             : en:Chapter 06
  213. 00:27:44.791                             : en:Chapter 07
  214. 00:30:51.375                             : en:Chapter 08
  215. 00:34:38.125                             : en:Chapter 09
  216. 00:40:35.083                             : en:Chapter 10
  217. 00:46:32.333                             : en:Chapter 11
  218. 00:52:25.375                             : en:Chapter 12
  219. 00:57:19.041                             : en:Chapter 13
  220. 01:01:23.791                             : en:Chapter 14
  221. 01:05:38.333                             : en:Chapter 15
  222. 01:08:45.916                             : en:Chapter 16
  223. 01:15:54.375                             : en:Chapter 17
  224. 01:21:40.875                             : en:Chapter 18
  225. 01:26:23.541                             : en:Chapter 19
  226. 01:34:21.166                             : en:Chapter 20
复制代码






                                       
                                       

                                       
                                       
                                       




回复

使用道具 举报

懒得打字嘛,点击右侧快捷回复 【右侧内容,后台自定义】
您需要登录后才可以回帖 登录 | 立即加入

本版积分规则

Archiver|小黑屋| 蓝光电影网 |网站地图

Copyright © 2021 Comsenz Inc. Powered by 蓝光电影网

蓝光电影网

本站内容由用户自主分享和转载自互联网,转载目的在于传递更多信息,并不代表本网赞同其观点和对其真实性负责。

如有侵权、违反国家法律政策行为,请联系我们,我们会第一时间及时清除和处理!

举报反馈邮箱:[email protected]

快速回复 返回顶部 返回列表