找回密码

蓝光电影网

查看: 16|回复: 0

[动作] 火影忍者剧场版:博人传 Boruto.The.Movie.2015.1080p.BluRay.x264-MOOVEE 6.56GB

[复制链接]
蓝光币
511
发表于 2019-8-8 21:07:25 | 显示全部楼层 |阅读模式
[img]https://img1.doubanio.com/view/photo/l_ratio_poster/public/p2251539632.jpg[img]
◎译  名 火影忍者戏院版:博人传 / Boruto: Naruto the Movie / 火影忍者2015新戏院版 / 火影忍者戏院版11:博人的故事 / 火影忍者戏院版:博人 / 火影忍者戏院版:幕留人(港) / 火影忍者:博人传
◎片  名 BORUTO -NARUTO THE MOVIE-
◎年  代 2015
◎产  地 日本
◎类  别 行动 / 动画 / 冒险
◎语  言 日语
◎上映日期 2015-08-07(日本) / 2016-02-18(中国大陆)
◎IMDb评分  8.0/10 from 7212 users
◎IMDb链接  http://www.imdb.com/title/tt4618398
◎豆瓣评分 8.3/10 from 56320 users
◎豆瓣链接 https://movie.douban.com/subject/26282448/
◎片  长 96分钟
◎导  演 山下宏幸
◎编  剧 岸本齐史 Masashi Kishimoto / 小太刀右京 Ukyo Kodachi
◎主  演 三瓶由布子 Yuko Sanpei
       菊池心 Kokoro Kikuchi
       木岛隆一 Ryuuichi Kijima
       竹内顺子 Junko Takeuchi
       中村千绘 Chie Nakamura
       杉山纪彰 Noriaki Sugiyama
       早见沙织 Saori Hayami
       水树奈奈 Nana Mizuki
       小野贤章 Kensho Ono
       森久保祥太郎 Shotaro Morikubo
       阿部敦 Atsushi Abe
       日野聪 Satoshi Hino
       高桥英则 Hidenori Takahashi
       田村由加莉 Yukari Tamura
       增川洋一 Yoichi Masukawa
       石田彰 Akira Ishida
       竹内良太 Ry?ta Takeuchi
       宫田幸季 Kouki Miyata
       武田华 Takeda Hana
       浪川大辅 Daisuke Namikawa
       安元洋贵 Hiroki Yasumoto
       江川央生 Hisao Egawa
       菊本平 Kikumoto Taira
       河西健吾 Kengo Kawanishi
       河合海
       竹内绚子
       奥村翔
       玄田哲章 Tessh? Genda

◎标  签 火影忍者 | 日本 | 动画 | 戏院版 | 热血 | 青春 | 二次元 | 2015
◎简  介  
  漩涡博人(三瓶由布子 Yuko Sanpei 配音)虽然是七代火影漩涡鸣人(竹内顺子 配音)的儿子,可是他并不以父亲为荣,父子间布满了误解。博报酬了打败父亲,预备拜师宇智波佐助(杉山纪彰 配音),与此同时,博人与佐助的女儿佐良娜(菊池心 配音)、三月(木岛隆一 饰)组成了小队,配合加入下影的考试。下影考试起头,博人求胜心切,不意考试途中,奥秘反派大筒木桃式、金式策动了忽然攻击,鸣报酬了庇护木叶村堕入了危机。博人起头重新熟悉这个父亲,和佐助、我爱罗等父亲的老朋友起头了拯救鸣人的战役。
  1. Video
  2. ID                                       : 1
  3. Format                                   : AVC
  4. Format/Info                              : Advanced Video Codec
  5. Format profile                           : [email protected]
  6. Format settings, CABAC                   : Yes
  7. Format settings, ReFrames                : 4 frames
  8. Codec ID                                 : V_MPEG4/ISO/AVC
  9. Duration                                 : 1h 35mn
  10. Bit rate                                 : 8 310 Kbps
  11. Width                                    : 1 920 pixels
  12. Height                                   : 1 040 pixels
  13. Display aspect ratio                     : 1.85:1
  14. Frame rate mode                          : Constant
  15. Frame rate                               : 23.976 (24000/1001) fps
  16. Color space                              : YUV
  17. Chroma subsampling                       : 4:2:0
  18. Bit depth                                : 8 bits
  19. Scan type                                : Progressive
  20. Bits/(Pixel*Frame)                       : 0.174
  21. Stream size                              : 5.53 GiB (84%)
  22. Writing library                          : x264 core 152 r2851kMod ba24899
  23. Encoding settings                        : cabac=1 / ref=4 / deblock=1:0:0 / analyse=0x3:0x133 / me=umh / subme=8 / psy=1 / fade_compensate=0.00 / psy_rd=1.00:0.00 / mixed_ref=1 / me_range=16 / chroma_me=1 / trellis=1 / 8x8dct=1 / cqm=0 / deadzone=21,11 / fast_pskip=0 / chroma_qp_offset=-2 / threads=18 / lookahead_threads=3 / sliced_threads=0 / nr=0 / decimate=1 / interlaced=0 / bluray_compat=0 / constrained_intra=0 / bframes=3 / b_pyramid=2 / b_adapt=1 / b_bias=0 / direct=1 / weightb=1 / open_gop=0 / weightp=2 / keyint=250 / keyint_min=23 / scenecut=40 / intra_refresh=0 / rc_lookahead=40 / rc=2pass / mbtree=1 / bitrate=8310 / ratetol=1.0 / qcomp=0.60 / qpmin=0 / qpmax=69 / qpstep=4 / cplxblur=20.0 / qblur=0.5 / ip_ratio=1.40 / aq=1:1.00
  24. Language                                 : English
  25. Default                                  : Yes
  26. Forced                                   : No

  27. Audio #1
  28. ID                                       : 2
  29. Format                                   : DTS
  30. Format/Info                              : Digital Theater Systems
  31. Mode                                     : 16
  32. Format settings, Endianness              : Big
  33. Codec ID                                 : A_DTS
  34. Duration                                 : 1h 35mn
  35. Bit rate mode                            : Constant
  36. Bit rate                                 : 768 Kbps
  37. Channel(s)                               : 6 channels
  38. Channel positions                        : Front: L C R, Side: L R, LFE
  39. Sampling rate                            : 48.0 KHz
  40. Frame rate                               : 93.750 fps (512 spf)
  41. Bit depth                                : 24 bits
  42. Compression mode                         : Lossy
  43. Stream size                              : 524 MiB (8%)
  44. Title                                    : Japanese
  45. Language                                 : Japanese
  46. Default                                  : Yes
  47. Forced                                   : No

  48. Audio #2
  49. ID                                       : 3
  50. Format                                   : DTS
  51. Format/Info                              : Digital Theater Systems
  52. Mode                                     : 16
  53. Format settings, Endianness              : Big
  54. Codec ID                                 : A_DTS
  55. Duration                                 : 1h 35mn
  56. Bit rate mode                            : Constant
  57. Bit rate                                 : 768 Kbps
  58. Channel(s)                               : 6 channels
  59. Channel positions                        : Front: L C R, Side: L R, LFE
  60. Sampling rate                            : 48.0 KHz
  61. Frame rate                               : 93.750 fps (512 spf)
  62. Bit depth                                : 24 bits
  63. Compression mode                         : Lossy
  64. Stream size                              : 524 MiB (8%)
  65. Title                                    : English
  66. Language                                 : English
  67. Default                                  : No
  68. Forced                                   : No

  69. Text #1
  70. ID                                       : 4
  71. Format                                   : UTF-8
  72. Codec ID                                 : S_TEXT/UTF8
  73. Codec ID/Info                            : UTF-8 Plain Text
  74. Duration                                 : 1h 32mn
  75. Bit rate                                 : 50 bps
  76. Count of elements                        : 1119
  77. Stream size                              : 34.1 KiB (0%)
  78. Title                                    : English
  79. Language                                 : English
  80. Default                                  : Yes
  81. Forced                                   : No

  82. Text #2
  83. ID                                       : 5
  84. Format                                   : UTF-8
  85. Codec ID                                 : S_TEXT/UTF8
  86. Codec ID/Info                            : UTF-8 Plain Text
  87. Duration                                 : 1h 30mn
  88. Bit rate                                 : 3 bps
  89. Count of elements                        : 51
  90. Stream size                              : 2.01 KiB (0%)
  91. Title                                    : English Forced
  92. Language                                 : English
  93. Default                                  : No
  94. Forced                                   : No

  95. Menu
  96. 00:00:00.000                             : en:00:00:00.000
  97. 00:06:51.077                             : en:00:06:51.077
  98. 00:14:51.474                             : en:00:14:51.474
  99. 00:22:44.697                             : en:00:22:44.697
  100. 00:30:15.355                             : en:00:30:15.355
  101. 00:38:17.128                             : en:00:38:17.128
  102. 00:45:08.998                             : en:00:45:08.998
  103. 00:53:35.546                             : en:00:53:35.546
  104. 00:59:30.650                             : en:00:59:30.650
  105. 01:07:55.571                             : en:01:07:55.571
  106. 01:15:28.899                             : en:01:15:28.899
  107. 01:21:53.826                             : en:01:21:53.826
复制代码




                                       
                                       

                                       
                                       
                                       




回复

使用道具 举报

懒得打字嘛,点击右侧快捷回复 【右侧内容,后台自定义】
您需要登录后才可以回帖 登录 | 立即加入

本版积分规则

Archiver|小黑屋| 蓝光电影网 |网站地图

Copyright © 2021 Comsenz Inc. Powered by 蓝光电影网

蓝光电影网

本站内容由用户自主分享和转载自互联网,转载目的在于传递更多信息,并不代表本网赞同其观点和对其真实性负责。

如有侵权、违反国家法律政策行为,请联系我们,我们会第一时间及时清除和处理!

举报反馈邮箱:[email protected]

快速回复 返回顶部 返回列表