找回密码

蓝光电影网

查看: 50|回复: 0

[动作] 超人:明日之子 Superman.Man.of.Tomorrow.2020.1080p.BluRay.REMUX.AVC.DTS-HD.MA.5.1-FGT 12.74GB

[复制链接]
蓝光币
511
发表于 2020-9-11 09:15:10 | 显示全部楼层 |阅读模式


◎译  名 超人:明日之子
◎片  名 Superman: Man of Tomorrow
◎年  代 2020
◎产  地 美国
◎类  别 行动 / 动画
◎语  言 英语
◎上映日期 2020-08-23(美国收集) / 2020-09-08(美国)
◎IMDb评分  6.4/10 from 1812 users
◎IMDb链接  https://www.imdb.com/title/tt11079116/
◎豆瓣评分 6.1/10 from 1036 users
◎豆瓣链接 https://movie.douban.com/subject/34777819/
◎片  长 86分钟
◎导  演 克里斯·帕尔默 Chris Palmer
◎编  剧 蒂姆·谢里丹 Tim Sheridan
◎主  演 达伦·克里斯 Darren Criss
       扎克瑞·昆图 Zachary Quinto
       艾克·阿玛迪 Ike Amadi
       尤金·伯德 Eugene Byrd
       David Chen
       亚历珊德拉·达达里奥 Alexandra Daddario
       布雷特·道顿 Brett Dalton
       尼尔·弗林 Neil Flynn
       瑞恩·赫斯特 Ryan Hurst
       茜丝·琼斯 Cissy Jones
       彼得·迈克尔 Piotr Michael
       克里斯蒂娜·米利齐亚 Cristina Milizia
       艾普尔·斯图瓦特 April Stewart
       贝拉米·扬 Bellamy Young
◎标  签 DC | 动画 | 超级豪杰 | 美国 | 漫画改编 | 2020 | 科幻 | 超人
◎简  介


  报告一个年轻的克拉克·肯特在超人生活早期的故事。关于这部电影的更多细节没有流露。
  1. Video
  2. ID                                       : 1
  3. ID in the original source medium         : 4113 (0x1011)
  4. Format                                   : AVC
  5. Format/Info                              : Advanced Video Codec
  6. Format profile                           : [email protected]
  7. Format settings                          : CABAC / 4 Ref Frames
  8. Format settings, CABAC                   : Yes
  9. Format settings, Reference frames        : 4 frames
  10. Codec ID                                 : V_MPEG4/ISO/AVC
  11. Duration                                 : 1 h 26 min
  12. Bit rate mode                            : Variable
  13. Bit rate                                 : 15.0 Mb/s
  14. Maximum bit rate                         : 38.0 Mb/s
  15. Width                                    : 1 920 pixels
  16. Height                                   : 1 080 pixels
  17. Display aspect ratio                     : 16:9
  18. Frame rate mode                          : Constant
  19. Frame rate                               : 23.976 (24000/1001/189150) FPS
  20. Color space                              : YUV
  21. Chroma subsampling                       : 4:2:0
  22. Bit depth                                : 8 bits
  23. Scan type                                : Progressive
  24. Bits/(Pixel*Frame)                       : 0.301
  25. Stream size                              : 9.04 GiB (71%)
  26. Title                                    : Superman.Man.of.Tomorrow.2020.1080p.BluRay.REMUX.AVC.DTS-HD.MA.5.1-FGT
  27. Language                                 : English
  28. Default                                  : No
  29. Forced                                   : No
  30. Original source medium                   : Blu-ray
  31. Audio #1
  32. ID                                       : 2
  33. ID in the original source medium         : 4352 (0x1100)
  34. Format                                   : DTS XLL
  35. Format/Info                              : Digital Theater Systems
  36. Commercial name                          : DTS-HD Master Audio
  37. Codec ID                                 : A_DTS
  38. Duration                                 : 1 h 26 min
  39. Bit rate mode                            : Variable
  40. Bit rate                                 : 4 106 kb/s
  41. Channel(s)                               : 6 channels
  42. Channel layout                           : C L R Ls Rs LFE
  43. Sampling rate                            : 48.0 kHz
  44. Frame rate                               : 93.750 FPS (512 SPF)
  45. Bit depth                                : 24 bits
  46. Compression mode                         : Lossless
  47. Stream size                              : 2.48 GiB (19%)
  48. Title                                    : Superman.Man.of.Tomorrow.2020.1080p.BluRay.REMUX.AVC.DTS-HD.MA.5.1-FGT
  49. Language                                 : English
  50. Default                                  : Yes
  51. Forced                                   : No
  52. Original source medium                   : Blu-ray
  53. Audio #2
  54. ID                                       : 3
  55. ID in the original source medium         : 4353 (0x1101)
  56. Format                                   : AC-3
  57. Format/Info                              : Audio Coding 3
  58. Commercial name                          : Dolby Digital
  59. Codec ID                                 : A_AC3
  60. Duration                                 : 1 h 26 min
  61. Bit rate mode                            : Constant
  62. Bit rate                                 : 640 kb/s
  63. Channel(s)                               : 6 channels
  64. Channel layout                           : L R C LFE Ls Rs
  65. Sampling rate                            : 48.0 kHz
  66. Frame rate                               : 31.250 FPS (1536 SPF)
  67. Compression mode                         : Lossy
  68. Stream size                              : 396 MiB (3%)
  69. Title                                    : Superman.Man.of.Tomorrow.2020.1080p.BluRay.REMUX.AVC.DTS-HD.MA.5.1-FGT
  70. Language                                 : Spanish
  71. Service kind                             : Complete Main
  72. Default                                  : No
  73. Forced                                   : No
  74. Original source medium                   : Blu-ray
  75. Audio #3
  76. ID                                       : 4
  77. ID in the original source medium         : 4354 (0x1102)
  78. Format                                   : AC-3
  79. Format/Info                              : Audio Coding 3
  80. Commercial name                          : Dolby Digital
  81. Codec ID                                 : A_AC3
  82. Duration                                 : 1 h 26 min
  83. Bit rate mode                            : Constant
  84. Bit rate                                 : 640 kb/s
  85. Channel(s)                               : 6 channels
  86. Channel layout                           : L R C LFE Ls Rs
  87. Sampling rate                            : 48.0 kHz
  88. Frame rate                               : 31.250 FPS (1536 SPF)
  89. Compression mode                         : Lossy
  90. Stream size                              : 396 MiB (3%)
  91. Title                                    : Superman.Man.of.Tomorrow.2020.1080p.BluRay.REMUX.AVC.DTS-HD.MA.5.1-FGT
  92. Language                                 : French
  93. Service kind                             : Complete Main
  94. Default                                  : No
  95. Forced                                   : No
  96. Original source medium                   : Blu-ray
  97. Audio #4
  98. ID                                       : 5
  99. ID in the original source medium         : 4355 (0x1103)
  100. Format                                   : AC-3
  101. Format/Info                              : Audio Coding 3
  102. Commercial name                          : Dolby Digital
  103. Codec ID                                 : A_AC3
  104. Duration                                 : 1 h 26 min
  105. Bit rate mode                            : Constant
  106. Bit rate                                 : 640 kb/s
  107. Channel(s)                               : 6 channels
  108. Channel layout                           : L R C LFE Ls Rs
  109. Sampling rate                            : 48.0 kHz
  110. Frame rate                               : 31.250 FPS (1536 SPF)
  111. Compression mode                         : Lossy
  112. Stream size                              : 396 MiB (3%)
  113. Title                                    : Superman.Man.of.Tomorrow.2020.1080p.BluRay.REMUX.AVC.DTS-HD.MA.5.1-FGT
  114. Language                                 : German
  115. Service kind                             : Complete Main
  116. Default                                  : No
  117. Forced                                   : No
  118. Original source medium                   : Blu-ray
  119. Text #1
  120. ID                                       : 6
  121. Format                                   : UTF-8
  122. Codec ID                                 : S_TEXT/UTF8
  123. Codec ID/Info                            : UTF-8 Plain Text
  124. Duration                                 : 1 h 21 min
  125. Bit rate                                 : 44 b/s
  126. Count of elements                        : 872
  127. Stream size                              : 26.8 KiB (0%)
  128. Title                                    : English-SRT
  129. Language                                 : English
  130. Default                                  : Yes
  131. Forced                                   : No
  132. Text #2
  133. ID                                       : 7
  134. ID in the original source medium         : 4608 (0x1200)
  135. Format                                   : PGS
  136. Muxing mode                              : zlib
  137. Codec ID                                 : S_HDMV/PGS
  138. Codec ID/Info                            : Picture based subtitle format used on BDs/HD-DVDs
  139. Duration                                 : 1 h 21 min
  140. Bit rate                                 : 30.8 kb/s
  141. Count of elements                        : 2154
  142. Stream size                              : 18.0 MiB (0%)
  143. Title                                    : English-PGS
  144. Language                                 : English
  145. Default                                  : No
  146. Forced                                   : No
  147. Original source medium                   : Blu-ray
  148. Text #3
  149. ID                                       : 8
  150. ID in the original source medium         : 4609 (0x1201)
  151. Format                                   : PGS
  152. Muxing mode                              : zlib
  153. Codec ID                                 : S_HDMV/PGS
  154. Codec ID/Info                            : Picture based subtitle format used on BDs/HD-DVDs
  155. Duration                                 : 1 h 25 min
  156. Bit rate                                 : 25.7 kb/s
  157. Count of elements                        : 1706
  158. Stream size                              : 15.8 MiB (0%)
  159. Title                                    : French-PGS
  160. Language                                 : French
  161. Default                                  : No
  162. Forced                                   : No
  163. Original source medium                   : Blu-ray
  164. Text #4
  165. ID                                       : 9
  166. ID in the original source medium         : 4610 (0x1202)
  167. Format                                   : PGS
  168. Muxing mode                              : zlib
  169. Codec ID                                 : S_HDMV/PGS
  170. Codec ID/Info                            : Picture based subtitle format used on BDs/HD-DVDs
  171. Duration                                 : 1 h 25 min
  172. Bit rate                                 : 29.6 kb/s
  173. Count of elements                        : 2170
  174. Stream size                              : 18.1 MiB (0%)
  175. Title                                    : German-PGS
  176. Language                                 : German
  177. Default                                  : No
  178. Forced                                   : No
  179. Original source medium                   : Blu-ray
  180. Text #5
  181. ID                                       : 10
  182. ID in the original source medium         : 4611 (0x1203)
  183. Format                                   : PGS
  184. Muxing mode                              : zlib
  185. Codec ID                                 : S_HDMV/PGS
  186. Codec ID/Info                            : Picture based subtitle format used on BDs/HD-DVDs
  187. Duration                                 : 1 h 25 min
  188. Bit rate                                 : 24.8 kb/s
  189. Count of elements                        : 1772
  190. Stream size                              : 15.2 MiB (0%)
  191. Title                                    : Spanish-PGS
  192. Language                                 : Spanish
  193. Default                                  : No
  194. Forced                                   : No
  195. Original source medium                   : Blu-ray
  196. Text #6
  197. ID                                       : 11
  198. ID in the original source medium         : 4612 (0x1204)
  199. Format                                   : PGS
  200. Muxing mode                              : zlib
  201. Codec ID                                 : S_HDMV/PGS
  202. Codec ID/Info                            : Picture based subtitle format used on BDs/HD-DVDs
  203. Duration                                 : 1 h 25 min
  204. Bit rate                                 : 24.2 kb/s
  205. Count of elements                        : 1542
  206. Stream size                              : 14.7 MiB (0%)
  207. Title                                    : Danish-PGS
  208. Language                                 : Danish
  209. Default                                  : No
  210. Forced                                   : No
  211. Original source medium                   : Blu-ray
  212. Text #7
  213. ID                                       : 12
  214. ID in the original source medium         : 4613 (0x1205)
  215. Format                                   : PGS
  216. Muxing mode                              : zlib
  217. Codec ID                                 : S_HDMV/PGS
  218. Codec ID/Info                            : Picture based subtitle format used on BDs/HD-DVDs
  219. Duration                                 : 1 h 25 min
  220. Bit rate                                 : 26.0 kb/s
  221. Count of elements                        : 1588
  222. Stream size                              : 15.9 MiB (0%)
  223. Title                                    : Finnish-PGS
  224. Language                                 : Finnish
  225. Default                                  : No
  226. Forced                                   : No
  227. Original source medium                   : Blu-ray
  228. Text #8
  229. ID                                       : 13
  230. ID in the original source medium         : 4614 (0x1206)
  231. Format                                   : PGS
  232. Muxing mode                              : zlib
  233. Codec ID                                 : S_HDMV/PGS
  234. Codec ID/Info                            : Picture based subtitle format used on BDs/HD-DVDs
  235. Duration                                 : 1 h 25 min
  236. Bit rate                                 : 23.8 kb/s
  237. Count of elements                        : 1656
  238. Stream size                              : 14.5 MiB (0%)
  239. Title                                    : Norwegian-PGS
  240. Language                                 : Norwegian
  241. Default                                  : No
  242. Forced                                   : No
  243. Original source medium                   : Blu-ray
  244. Text #9
  245. ID                                       : 14
  246. ID in the original source medium         : 4615 (0x1207)
  247. Format                                   : PGS
  248. Muxing mode                              : zlib
  249. Codec ID                                 : S_HDMV/PGS
  250. Codec ID/Info                            : Picture based subtitle format used on BDs/HD-DVDs
  251. Duration                                 : 1 h 25 min
  252. Bit rate                                 : 25.4 kb/s
  253. Count of elements                        : 1764
  254. Stream size                              : 15.5 MiB (0%)
  255. Title                                    : Swedish-PGS
  256. Language                                 : Swedish
  257. Default                                  : No
  258. Forced                                   : No
  259. Original source medium                   : Blu-ray
  260. Text #10
  261. ID                                       : 15
  262. ID in the original source medium         : 4616 (0x1208)
  263. Format                                   : PGS
  264. Muxing mode                              : zlib
  265. Codec ID                                 : S_HDMV/PGS
  266. Codec ID/Info                            : Picture based subtitle format used on BDs/HD-DVDs
  267. Duration                                 : 55 min 51 s
  268. Bit rate                                 : 474 b/s
  269. Count of elements                        : 24
  270. Stream size                              : 194 KiB (0%)
  271. Title                                    : French-FORCED-PGS
  272. Language                                 : French
  273. Default                                  : No
  274. Forced                                   : No
  275. Original source medium                   : Blu-ray
  276. Text #11
  277. ID                                       : 16
  278. ID in the original source medium         : 4616 (0x1208)
  279. Format                                   : PGS
  280. Muxing mode                              : zlib
  281. Codec ID                                 : S_HDMV/PGS
  282. Codec ID/Info                            : Picture based subtitle format used on BDs/HD-DVDs
  283. Duration                                 : 55 min 51 s
  284. Bit rate                                 : 474 b/s
  285. Count of elements                        : 24
  286. Stream size                              : 194 KiB (0%)
  287. Title                                    : French-FORCED-PGS
  288. Language                                 : French
  289. Default                                  : No
  290. Forced                                   : No
  291. Original source medium                   : Blu-ray
  292. Text #12
  293. ID                                       : 17
  294. ID in the original source medium         : 4617 (0x1209)
  295. Format                                   : PGS
  296. Muxing mode                              : zlib
  297. Codec ID                                 : S_HDMV/PGS
  298. Codec ID/Info                            : Picture based subtitle format used on BDs/HD-DVDs
  299. Duration                                 : 55 min 14 s
  300. Bit rate                                 : 197 b/s
  301. Count of elements                        : 8
  302. Stream size                              : 79.8 KiB (0%)
  303. Title                                    : Spanish-FORCED-PGS
  304. Language                                 : Spanish
  305. Default                                  : No
  306. Forced                                   : No
  307. Original source medium                   : Blu-ray
  308. Text #13
  309. ID                                       : 18
  310. ID in the original source medium         : 4617 (0x1209)
  311. Format                                   : PGS
  312. Muxing mode                              : zlib
  313. Codec ID                                 : S_HDMV/PGS
  314. Codec ID/Info                            : Picture based subtitle format used on BDs/HD-DVDs
  315. Duration                                 : 55 min 14 s
  316. Bit rate                                 : 197 b/s
  317. Count of elements                        : 8
  318. Stream size                              : 79.8 KiB (0%)
  319. Title                                    : Spanish-FORCED-PGS
  320. Language                                 : Spanish
  321. Default                                  : No
  322. Forced                                   : No
  323. Original source medium                   : Blu-ray
  324. Menu
  325. 00:00:00.000                             : en:Chapter 01
  326. 00:09:25.356                             : en:Chapter 02
  327. 00:20:07.539                             : en:Chapter 03
  328. 00:31:07.657                             : en:Chapter 04
  329. 00:40:24.797                             : en:Chapter 05
  330. 00:47:56.498                             : en:Chapter 06
  331. 00:57:28.236                             : en:Chapter 07
  332. 01:07:09.650                             : en:Chapter 08
  333. 01:15:53.882                             : en:Chapter 09
  334. 01:22:48.254                             : en:Chapter 10
复制代码





                                       
                                       

                                       
                                       
                                       




回复

使用道具 举报

懒得打字嘛,点击右侧快捷回复 【右侧内容,后台自定义】
您需要登录后才可以回帖 登录 | 立即加入

本版积分规则

Archiver|小黑屋| 蓝光电影网 |网站地图

Copyright © 2021 Comsenz Inc. Powered by 蓝光电影网

蓝光电影网

本站内容由用户自主分享和转载自互联网,转载目的在于传递更多信息,并不代表本网赞同其观点和对其真实性负责。

如有侵权、违反国家法律政策行为,请联系我们,我们会第一时间及时清除和处理!

举报反馈邮箱:[email protected]

快速回复 返回顶部 返回列表