找回密码

蓝光电影网

查看: 17|回复: 0

[喜剧] 鼠国流浪记/冲出水世界 Flushed.Away.2006.1080p.BluRay.X264-AMIABLE 6.62GB

[复制链接]
蓝光币
511
发表于 2020-11-30 09:16:37 | 显示全部楼层 |阅读模式


◎译  名 鼠国流浪记/冲出水天下/冲走小老鼠/酷鼠大冒险/鼠国飘流记
◎片  名 Flushed Away
◎年  代 2006
◎产  地 英国,美国
◎类  别 笑剧 / 动画 / 家庭 / 冒险
◎语  言 英语
◎上映日期 2006-11-03
◎IMDb评分  6.6/10 from 111916 users
◎IMDb链接  https://www.imdb.com/title/tt0424095/
◎豆瓣评分 7.1/10 from 8319 users
◎豆瓣链接 https://movie.douban.com/subject/1498825/
◎片  长 85 分钟
◎导  演 山姆·菲尔 Sam Fell / 大卫·博维斯 David Bowers
◎编  剧 迪克·克莱蒙特 Dick Clement / 伊安·拉·弗雷奈斯 Ian La Frenais / 克里斯托弗·洛伊德 Christopher Lloyd / 乔·基南 Joe Keenan / William Davies / 大卫·博维斯 David Bowers / 山姆·菲尔 Sam Fell / 罗伯特·尼尔森·雅各布斯 Robert Nelson Jacobs / 克里斯托弗·洛伊德 Christopher Lloyd / 彼得·洛德 Peter Lord / 西蒙·尼耶 Simon Nye / 威廉姆·戴维斯 William Davies
◎主  演 休·杰克曼 Hugh Jackman
       凯特·温丝莱特 Kate Winslet
       伊恩·麦克莱恩 Ian McKellen
       让·雷诺 Jean Reno
       比尔·奈伊 Bill Nighy
       安迪·瑟金斯 Andy Serkis
       Paul Shardlow
       汤姆·麦格拉思 Tom McGrath
       康拉德·弗农 Conrad Vernon
       凯西·伯克 Kathy Burke
       肖恩·里奇 Shane Richie
       米尔斯·理查森 Miles Richardson
       克里斯托弗·法里班克 Christopher Fairbank
       纽威尔·亚历山大 Newell Alexander
       米瑞安·玛格莱斯 Miriam Margolyes
       大卫·博维斯 David Bowers
       大卫·苏切 David Suchet
       山姆·菲尔 Sam Fell
       John Motson
◎标  签 动画 | 美国 | 梦工场 | 笑剧 | 动画片 | 英国 | 2006 | 美国电影
◎简  介


  宠物鼠罗迪的奢华生活全被一只从下水道爬上来的流浪鼠西德搅了,无赖西德甚至把罗迪冲进了下水道。从没履历过世事的罗迪简直步入了噩梦一般,他鲜明的穿着和闪亮的皮鞋与龌龊的下水道城市格格不入。不外荣幸的他碰到了丽塔,一个自力、勇敢、聪明、强悍的新新鼠类,更重要的是,她是个标致的女孩儿。
  
  丽塔答应送罗迪回家,不想这个进程费尽了周折。地来天下里生在世一只妄想灭绝鼠类的疯疯癫癫的癞虾蟆陶德。他一路对丽塔和罗迪围追堵劫。历尽含辛茹苦,他们终究回到罗迪的家。但是在丽塔看来,罗迪的家虽然舒适却好像金丝雀的鸟笼。已经对丽塔心生倾慕的罗迪该怎样办呢?他会放弃奢华的生活跟随着心爱的姑娘去漂泊么?
◎获奖情况
  第34届动画安妮奖 ?(2007)
  最好导演(提名) 山姆·菲尔?/?大卫·博维斯
  最好编剧 克里斯托弗·洛伊德?/?伊安·拉·弗雷奈斯?/?迪克·克莱蒙特?/?乔·基南?/?威廉姆·戴维斯
  最好配音 伊恩·麦克莱恩
  最好分镜(提名) 西蒙·威尔斯
  最好艺术指导 皮埃尔·奥利维尔·文森特
  最好动画脚色 加比·霍尔多斯
  最好动画脚色(提名)
  最好动画结果(提名) ScottCegielski
  1. Video
  2. ID                                       : 1
  3. Format                                   : AVC
  4. Format/Info                              : Advanced Video Codec
  5. Format profile                           : [email protected]
  6. Format settings                          : CABAC / 4 Ref Frames
  7. Format settings, CABAC                   : Yes
  8. Format settings, Reference frames        : 4 frames
  9. Codec ID                                 : V_MPEG4/ISO/AVC
  10. Duration                                 : 1 h 25 min
  11. Bit rate                                 : 9 530 kb/s
  12. Width                                    : 1 920 pixels
  13. Height                                   : 1 040 pixels
  14. Display aspect ratio                     : 1.85:1
  15. Frame rate mode                          : Constant
  16. Frame rate                               : 23.976 (24000/1001/189150) FPS
  17. Color space                              : YUV
  18. Chroma subsampling                       : 4:2:0
  19. Bit depth                                : 8 bits
  20. Scan type                                : Progressive
  21. Bits/(Pixel*Frame)                       : 0.199
  22. Stream size                              : 5.53 GiB (84%)
  23. Writing library                          : x264 core 157 r2935 545de2f
  24. Encoding settings                        : cabac=1 / ref=4 / deblock=1:-3:-3 / analyse=0x3:0x113 / me=umh / subme=8 / psy=1 / psy_rd=0.95:0.00 / mixed_ref=1 / me_range=32 / chroma_me=1 / trellis=2 / 8x8dct=1 / cqm=0 / deadzone=21,11 / fast_pskip=1 / chroma_qp_offset=-2 / threads=32 / lookahead_threads=5 / sliced_threads=0 / nr=0 / decimate=1 / interlaced=0 / bluray_compat=0 / constrained_intra=0 / bframes=3 / b_pyramid=2 / b_adapt=2 / b_bias=0 / direct=3 / weightb=1 / open_gop=0 / weightp=2 / keyint=240 / keyint_min=24 / scenecut=40 / intra_refresh=0 / rc_lookahead=50 / rc=2pass / mbtree=1 / bitrate=9530 / ratetol=1.0 / qcomp=0.60 / qpmin=0 / qpmax=69 / qpstep=4 / cplxblur=20.0 / qblur=0.5 / ip_ratio=1.40 / aq=3:0.80
  25. Default                                  : Yes
  26. Forced                                   : No
  27. Statistics Tags Issue                    : no_variable_data 1970-01-01 00:00:00 / no_variable_data 2010-02-22 21:41:29
  28. FromStats_BitRate                        : 9529818
  29. FromStats_Duration                       : 01:25:02.306000000
  30. FromStats_FrameCount                     : 122333
  31. FromStats_StreamSize                     : 6078006323

  32. Audio
  33. ID                                       : 2
  34. Format                                   : DTS
  35. Format/Info                              : Digital Theater Systems
  36. Codec ID                                 : A_DTS
  37. Duration                                 : 1 h 25 min
  38. Bit rate mode                            : Constant
  39. Bit rate                                 : 1 509 kb/s
  40. Channel(s)                               : 6 channels
  41. Channel layout                           : C L R Ls Rs LFE
  42. Sampling rate                            : 48.0 kHz
  43. Frame rate                               : 93.750 FPS (512 SPF)
  44. Bit depth                                : 24 bits
  45. Compression mode                         : Lossy
  46. Stream size                              : 918 MiB (14%)
  47. Language                                 : English
  48. Default                                  : Yes
  49. Forced                                   : No
  50. Statistics Tags Issue                    : no_variable_data 1970-01-01 00:00:00 / no_variable_data 2010-02-22 21:41:29
  51. FromStats_BitRate                        : 1508999
  52. FromStats_Duration                       : 01:25:02.315000000
  53. FromStats_FrameCount                     : 478342
  54. FromStats_StreamSize                     : 962424104

  55. Text #1
  56. ID                                       : 3
  57. Format                                   : UTF-8
  58. Codec ID                                 : S_TEXT/UTF8
  59. Codec ID/Info                            : UTF-8 Plain Text
  60. Language                                 : English
  61. Default                                  : No
  62. Forced                                   : No
  63. Statistics Tags Issue                    : no_variable_data 1970-01-01 00:00:00 / no_variable_data 2010-02-22 21:41:29
  64. FromStats_BitRate                        : 67
  65. FromStats_Duration                       : 01:23:46.105000000
  66. FromStats_FrameCount                     : 1331
  67. FromStats_StreamSize                     : 42485

  68. Text #2
  69. ID                                       : 4
  70. Format                                   : UTF-8
  71. Codec ID                                 : S_TEXT/UTF8
  72. Codec ID/Info                            : UTF-8 Plain Text
  73. Title                                    : SDH
  74. Language                                 : English
  75. Default                                  : No
  76. Forced                                   : No
  77. Statistics Tags Issue                    : no_variable_data 1970-01-01 00:00:00 / no_variable_data 2010-02-22 21:41:29
  78. FromStats_BitRate                        : 82
  79. FromStats_Duration                       : 01:23:46.855000000
  80. FromStats_FrameCount                     : 1639
  81. FromStats_StreamSize                     : 52024

  82. Menu
  83. 00:00:00.000                             : en:Chapter 01
  84. 00:04:16.131                             : en:Chapter 02
  85. 00:07:47.717                             : en:Chapter 03
  86. 00:11:23.182                             : en:Chapter 04
  87. 00:14:08.014                             : en:Chapter 05
  88. 00:19:29.585                             : en:Chapter 06
  89. 00:24:36.183                             : en:Chapter 07
  90. 00:28:05.809                             : en:Chapter 08
  91. 00:31:25.634                             : en:Chapter 09
  92. 00:37:35.670                             : en:Chapter 10
  93. 00:43:08.336                             : en:Chapter 11
  94. 00:47:14.957                             : en:Chapter 12
  95. 00:53:05.557                             : en:Chapter 13
  96. 00:58:12.739                             : en:Chapter 14
  97. 01:04:23.151                             : en:Chapter 15
  98. 01:07:48.731                             : en:Chapter 16
  99. 01:11:18.316                             : en:Chapter 17
  100. 01:16:35.716                             : en:Chapter 18
复制代码




                                       
                                       

                                       
                                       
                                       




回复

使用道具 举报

懒得打字嘛,点击右侧快捷回复 【右侧内容,后台自定义】
您需要登录后才可以回帖 登录 | 立即加入

本版积分规则

Archiver|小黑屋| 蓝光电影网 |网站地图

Copyright © 2021 Comsenz Inc. Powered by 蓝光电影网

蓝光电影网

本站内容由用户自主分享和转载自互联网,转载目的在于传递更多信息,并不代表本网赞同其观点和对其真实性负责。

如有侵权、违反国家法律政策行为,请联系我们,我们会第一时间及时清除和处理!

举报反馈邮箱:[email protected]

快速回复 返回顶部 返回列表