找回密码

蓝光电影网

查看: 53|回复: 0

[剧情] 造物主 The.Creatress.2019.1080p.BluRay.REMUX.AVC.DTS-HD.MA.5.1-FGT 19.88GB

[复制链接]
蓝光币
682
发表于 2019-9-2 17:06:23 | 显示全部楼层 |阅读模式


◎译  名 造物主
◎片  名 The Creatress
◎年  代 2019
◎产  地 美国
◎类  别 剧情 / 笑剧
◎语  言 英语
◎IMDb链接  http://www.imdb.com/title/tt7203052
◎豆瓣评分 0/10 from 0 users
◎豆瓣链接 https://movie.douban.com/subject/34809163/
◎片  长 110分钟
◎导  演 杰森·库克 Jason Cook
◎编  剧 杰森·库克 Jason Cook
◎主  演 法兰·德瑞雪 Fran Drescher
       彼得·博格丹诺维奇 Peter Bogdanovich
       林蒂·布丝 Lindy Booth
       凯拉·伊薇儿 Kayla Ewell
       丹特·巴斯克 Dante Basco
       Tiana Benjamin
       Francis Lloyd Corby
       卢克·古尔丹 Luke Guldan
       David Scott Lago

◎简  介  
  Young, bestselling author Eryn Bellow concludes her bookstore tour with her agent selling film rights and closing a six figure advance for her follow-up. Headwinds arise as critics get offended by the claims that Eryn is being declared a living literary legend. The storm gathers force as the assaults gravitate from bad reviews to a fake-memoir designed to obliterate her from the field. Through the noise, Eryn attempts to write her way out of the public fray, and reclaim her voice in the minds of her readers. Along the way, she hopes to prove a happy ending is not always a bad thing.
  1. Video
  2. ID                                       : 1
  3. Format                                   : AVC
  4. Format/Info                              : Advanced Video Codec
  5. Format profile                           : [email protected]
  6. Format settings                          : CABAC / 4 Ref Frames
  7. Format settings, CABAC                   : Yes
  8. Format settings, Reference frames        : 4 frames
  9. Codec ID                                 : V_MPEG4/ISO/AVC
  10. Duration                                 : 1 h 50 min
  11. Bit rate mode                            : Variable
  12. Bit rate                                 : 21.8 Mb/s
  13. Maximum bit rate                         : 31.0 Mb/s
  14. Width                                    : 1 920 pixels
  15. Height                                   : 1 080 pixels
  16. Display aspect ratio                     : 16:9
  17. Frame rate mode                          : Constant
  18. Frame rate                               : 23.976 (24000/1001) FPS
  19. Color space                              : YUV
  20. Chroma subsampling                       : 4:2:0
  21. Bit depth                                : 8 bits
  22. Scan type                                : Progressive
  23. Bits/(Pixel*Frame)                       : 0.438
  24. Stream size                              : 16.7 GiB (84%)
  25. Title                                    : The.Creatress.2018.1080p.BluRay.REMUX.AVC.DTS-HD.MA.7.1-FGT
  26. Language                                 : English
  27. Default                                  : No
  28. Forced                                   : No
  29. Color range                              : Limited
  30. Color primaries                          : BT.709
  31. Transfer characteristics                 : BT.709
  32. Matrix coefficients                      : BT.709
  33. Audio
  34. ID                                       : 2
  35. Format                                   : DTS XLL
  36. Format/Info                              : Digital Theater Systems
  37. Commercial name                          : DTS-HD Master Audio
  38. Codec ID                                 : A_DTS
  39. Duration                                 : 1 h 50 min
  40. Bit rate mode                            : Variable
  41. Bit rate                                 : 4 046 kb/s
  42. Channel(s)                               : 6 channels
  43. Channel layout                           : C L R Ls Rs LFE
  44. Sampling rate                            : 48.0 kHz
  45. Frame rate                               : 93.750 FPS (512 SPF)
  46. Bit depth                                : 24 bits
  47. Compression mode                         : Lossless
  48. Stream size                              : 3.11 GiB (16%)
  49. Title                                    : The.Creatress.2018.1080p.BluRay.REMUX.AVC.DTS-HD.MA.7.1-FGT
  50. Language                                 : English
  51. Default                                  : Yes
  52. Forced                                   : No
  53. Text #1
  54. ID                                       : 3
  55. Format                                   : UTF-8
  56. Codec ID                                 : S_TEXT/UTF8
  57. Codec ID/Info                            : UTF-8 Plain Text
  58. Duration                                 : 1 h 46 min
  59. Bit rate                                 : 67 b/s
  60. Count of elements                        : 1570
  61. Stream size                              : 52.4 KiB (0%)
  62. Title                                    : English-SRT
  63. Language                                 : English
  64. Default                                  : Yes
  65. Forced                                   : No
  66. Text #2
  67. ID                                       : 4
  68. Format                                   : PGS
  69. Muxing mode                              : zlib
  70. Codec ID                                 : S_HDMV/PGS
  71. Codec ID/Info                            : Picture based subtitle format used on BDs/HD-DVDs
  72. Duration                                 : 1 h 46 min
  73. Bit rate                                 : 40.5 kb/s
  74. Count of elements                        : 3650
  75. Stream size                              : 31.0 MiB (0%)
  76. Language                                 : English
  77. Default                                  : No
  78. Forced                                   : No
  79. Menu
  80. 00:00:00.000                             : en:Chapter 01
  81. 00:11:03.829                             : en:Chapter 02
  82. 00:19:47.853                             : en:Chapter 03
  83. 00:31:46.905                             : en:Chapter 04
  84. 00:38:30.182                             : en:Chapter 05
  85. 00:50:28.108                             : en:Chapter 06
  86. 01:01:28.559                             : en:Chapter 07
  87. 01:11:18.983                             : en:Chapter 08
  88. 01:20:51.221                             : en:Chapter 09
  89. 01:30:33.302                             : en:Chapter 10
  90. 01:37:08.280                             : en:Chapter 11
  91. 01:46:48.193                             : en:Chapter 12
复制代码






                                       
                                       

                                       
                                       
                                       




回复

使用道具 举报

懒得打字嘛,点击右侧快捷回复 【右侧内容,后台自定义】
您需要登录后才可以回帖 登录 | 立即加入

本版积分规则

Archiver|小黑屋| 蓝光电影网 |网站地图

Copyright © 2021 Comsenz Inc. Powered by 蓝光电影网

蓝光电影网

本站内容由用户自主分享和转载自互联网,转载目的在于传递更多信息,并不代表本网赞同其观点和对其真实性负责。

如有侵权、违反国家法律政策行为,请联系我们,我们会第一时间及时清除和处理!

举报反馈邮箱:[email protected]

快速回复 返回顶部 返回列表