找回密码

蓝光电影网

查看: 13|回复: 0

[动作] 街头霸王2 Street.Fighter.II.The.Movie.1994.RERiP.1080p.BluRay.x264-DERANGED 6.56GB

[复制链接]
蓝光币
515
发表于 2019-8-8 20:48:35 | 显示全部楼层 |阅读模式
[img]https://img1.doubanio.com/view/photo/l_ratio_poster/public/p456839805.jpg[img]
◎译  名 陌头霸王2 / Street Fighter II: The Animated Movie
◎片  名 ストリートファイターII MOVIE
◎年  代 1994
◎产  地 日本
◎类  别 行动 / 动画
◎语  言 英语 / 日语
◎上映日期 1994-08-06(日本)
◎IMDb评分  7.3/10 from 7440 users
◎IMDb链接  http://www.imdb.com/title/tt0114563
◎豆瓣评分 6.6/10 from 602 users
◎豆瓣链接 https://movie.douban.com/subject/1293991/
◎片  长 98分钟
◎导  演 杉井仪三郎 Gisaburo Sugii
◎编  剧 杉井仪三郎 Gisaburo Sugii / 今井健 Takeshi Imai
◎主  演 津嘉山正種
       羽賀研二

◎标  签 动画 | 日本 | 日本动画 | 1994 | 行动 | 戏院版 | 街霸 | 游戏改编
◎简  介  
  隆(清水宏次朗 配音)和肯(羽贺研二 配音)是年轻的武道家,终生的理想就是追求更强健的体魄和更强大的气力,为了锤炼身手,两人结伴而行起头了周游天下的旅程,只为了寻觅加倍强大的对手,摸索各自的极限。
  一路上,两人碰见了很多和他们志同道合的好友——活跃心爱的春丽(藤谷美纪 配音)、朴直不阿的古烈(津嘉山正种 配音)、不竭冲破着自我的飞龙(船木诚胜 配音),好友们在一路商讨比试,相互之间身手都有了很大的上进,隆更是由于碰见了一位奥秘的师父,习得了破坏力庞大的“波动拳”。他们配合的仇敌是强大而又邪恶的维加,一行人能否团结一心,构造维加的诡计呢?
  1. Video
  2. ID                                       : 1
  3. Format                                   : AVC
  4. Format/Info                              : Advanced Video Codec
  5. Format profile                           : [email protected]
  6. Format settings                          : CABAC / 4 Ref Frames
  7. Format settings, CABAC                   : Yes
  8. Format settings, Reference frames        : 4 frames
  9. Codec ID                                 : V_MPEG4/ISO/AVC
  10. Duration                                 : 1 h 41 min
  11. Bit rate                                 : 7 975 kb/s
  12. Width                                    : 1 920 pixels
  13. Height                                   : 1 040 pixels
  14. Display aspect ratio                     : 1.85:1
  15. Frame rate mode                          : Constant
  16. Frame rate                               : 23.976 (24000/1001) FPS
  17. Color space                              : YUV
  18. Chroma subsampling                       : 4:2:0
  19. Bit depth                                : 8 bits
  20. Scan type                                : Progressive
  21. Bits/(Pixel*Frame)                       : 0.167
  22. Stream size                              : 5.52 GiB (84%)
  23. Writing library                          : x264 core 130 r2273 b3065e6
  24. Encoding settings                        : cabac=1 / ref=4 / deblock=1:0:0 / analyse=0x3:0x133 / me=umh / subme=8 / psy=1 / psy_rd=1.00:0.00 / mixed_ref=1 / me_range=16 / chroma_me=1 / trellis=1 / 8x8dct=1 / cqm=0 / deadzone=21,11 / fast_pskip=0 / chroma_qp_offset=-2 / threads=16 / lookahead_threads=2 / sliced_threads=0 / nr=0 / decimate=1 / interlaced=0 / bluray_compat=0 / constrained_intra=0 / bframes=3 / b_pyramid=2 / b_adapt=1 / b_bias=0 / direct=1 / weightb=1 / open_gop=0 / weightp=2 / keyint=240 / keyint_min=23 / scenecut=40 / intra_refresh=0 / rc_lookahead=40 / rc=2pass / mbtree=1 / bitrate=7975 / ratetol=1.0 / qcomp=0.60 / qpmin=0 / qpmax=69 / qpstep=4 / cplxblur=20.0 / qblur=0.5 / vbv_maxrate=62500 / vbv_bufsize=78125 / nal_hrd=none / ip_ratio=1.40 / aq=1:1.00
  25. Language                                 : Japanese
  26. Default                                  : No
  27. Forced                                   : No
  28. Audio #1
  29. ID                                       : 2
  30. Format                                   : AC-3
  31. Format/Info                              : Audio Coding 3
  32. Commercial name                          : Dolby Digital
  33. Codec ID                                 : A_AC3
  34. Duration                                 : 1 h 41 min
  35. Bit rate mode                            : Constant
  36. Bit rate                                 : 640 kb/s
  37. Channel(s)                               : 2 channels
  38. Channel layout                           : L R
  39. Sampling rate                            : 48.0 kHz
  40. Frame rate                               : 31.250 FPS (1536 SPF)
  41. Bit depth                                : 16 bits
  42. Compression mode                         : Lossy
  43. Stream size                              : 464 MiB (7%)
  44. Language                                 : Japanese
  45. Service kind                             : Complete Main
  46. Default                                  : Yes
  47. Forced                                   : No
  48. Audio #2
  49. ID                                       : 3
  50. Format                                   : AC-3
  51. Format/Info                              : Audio Coding 3
  52. Commercial name                          : Dolby Digital
  53. Codec ID                                 : A_AC3
  54. Duration                                 : 1 h 41 min
  55. Bit rate mode                            : Constant
  56. Bit rate                                 : 640 kb/s
  57. Channel(s)                               : 2 channels
  58. Channel layout                           : L R
  59. Sampling rate                            : 48.0 kHz
  60. Frame rate                               : 31.250 FPS (1536 SPF)
  61. Bit depth                                : 16 bits
  62. Compression mode                         : Lossy
  63. Stream size                              : 464 MiB (7%)
  64. Language                                 : English
  65. Service kind                             : Complete Main
  66. Default                                  : No
  67. Forced                                   : No
  68. Text
  69. ID                                       : 4
  70. Format                                   : UTF-8
  71. Codec ID                                 : S_TEXT/UTF8
  72. Codec ID/Info                            : UTF-8 Plain Text
  73. Language                                 : English
  74. Default                                  : Yes
  75. Forced                                   : No
复制代码






                                       
                                       

                                       
                                       
                                       




回复

使用道具 举报

懒得打字嘛,点击右侧快捷回复 【右侧内容,后台自定义】
您需要登录后才可以回帖 登录 | 立即加入

本版积分规则

Archiver|小黑屋| 蓝光电影网 |网站地图

Copyright © 2021 Comsenz Inc. Powered by 蓝光电影网

蓝光电影网

本站内容由用户自主分享和转载自互联网,转载目的在于传递更多信息,并不代表本网赞同其观点和对其真实性负责。

如有侵权、违反国家法律政策行为,请联系我们,我们会第一时间及时清除和处理!

举报反馈邮箱:[email protected]

快速回复 返回顶部 返回列表