找回密码

蓝光电影网

查看: 16|回复: 0

[喜剧] 屠宰场准则/屠宰场规则 Slaughterhouse.Rulez.2018.1080p.BluRay.X264-AMIABLE 7.67GB

[复制链接]
蓝光币
733
发表于 2020-11-30 09:13:24 | 显示全部楼层 |阅读模式


◎译  名 屠宰场原则/屠宰场法则
◎片  名 Slaughterhouse Rulez
◎年  代 2018
◎产  地 英国
◎类  别 笑剧 / 行动 / 可骇
◎语  言 英语
◎上映日期 2018-10-31(英国)
◎IMDb评分  5.3/10 from 10866 users
◎IMDb链接  https://www.imdb.com/title/tt6905696/
◎豆瓣评分 5.1/10 from 1492 users
◎豆瓣链接 https://movie.douban.com/subject/27045854/
◎片  长 103分钟
◎导  演 克利斯宾·米尔斯 Crispian Mills
◎编  剧 克利斯宾·米尔斯 Crispian Mills / 亨利·菲茨赫伯特 Henry Fitzherbert / 卢克·帕斯莫尔 Luke Passmore
◎主  演 阿萨·巴特菲尔德 Asa Butterfield
       芬恩·科尔 Finn Cole
       赫敏·科菲尔德 Hermione Corfield
       麦克·辛 Michael Sheen
       西蒙·佩吉 Simon Pegg
       尼克·弗罗斯特 Nick Frost
       杰米·布莱克利 Jamie Blackley
       加萨·阿鲁瓦利亚 Jassa Ahluwalia
       汤姆·里斯哈里斯 Tom Rhys Harries
       乔·哈特利 Jo Hartley
       伊莎贝拉·拉夫兰德 Isabella Laughland
       哈娜可·福特曼 Hanako Footman
       贝恩·科拉科 Bern Colla?o
       何梦琪 Mengqi He
       山姆·雷德兰 Sam Redland
       玛格特·罗比 Margot Robbie
       基特·康纳 Kit Connor
◎标  签 笑剧 | 英国 | 可骇 | 西蒙·佩吉 | 惊悚 | 2018 | 英国电影 | 阿沙·巴特菲尔德
◎简  介


  一所英国寄宿黉舍四周的水力压裂地出现了一个奥秘陷坑,被开释出的可骇气力令全部黉舍酿成了一个血腥的杀戮疆场。
  1. Video
  2. ID                                       : 1
  3. Format                                   : AVC
  4. Format/Info                              : Advanced Video Codec
  5. Format profile                           : [email protected]
  6. Format settings                          : CABAC / 5 Ref Frames
  7. Format settings, CABAC                   : Yes
  8. Format settings, Reference frames        : 5 frames
  9. Codec ID                                 : V_MPEG4/ISO/AVC
  10. Duration                                 : 1 h 43 min
  11. Bit rate                                 : 9 054 kb/s
  12. Width                                    : 1 920 pixels
  13. Height                                   : 808 pixels
  14. Display aspect ratio                     : 2.40:1
  15. Frame rate mode                          : Constant
  16. Frame rate                               : 23.976 (24000/1001/189150) FPS
  17. Color space                              : YUV
  18. Chroma subsampling                       : 4:2:0
  19. Bit depth                                : 8 bits
  20. Scan type                                : Progressive
  21. Bits/(Pixel*Frame)                       : 0.243
  22. Stream size                              : 6.40 GiB (84%)
  23. Writing library                          : x264 core 157 r2935 545de2f
  24. Encoding settings                        : cabac=1 / ref=5 / deblock=1:-3:-3 / analyse=0x3:0x113 / me=umh / subme=8 / psy=1 / psy_rd=1.00:0.00 / mixed_ref=1 / me_range=32 / chroma_me=1 / trellis=2 / 8x8dct=1 / cqm=0 / deadzone=21,11 / fast_pskip=1 / chroma_qp_offset=-2 / threads=24 / lookahead_threads=4 / sliced_threads=0 / nr=0 / decimate=1 / interlaced=0 / bluray_compat=0 / constrained_intra=0 / bframes=3 / b_pyramid=2 / b_adapt=2 / b_bias=0 / direct=3 / weightb=1 / open_gop=0 / weightp=2 / keyint=240 / keyint_min=24 / scenecut=40 / intra_refresh=0 / rc_lookahead=50 / rc=2pass / mbtree=1 / bitrate=9054 / ratetol=1.0 / qcomp=0.60 / qpmin=0 / qpmax=69 / qpstep=4 / cplxblur=20.0 / qblur=0.5 / ip_ratio=1.40 / aq=3:0.80
  25. Default                                  : Yes
  26. Forced                                   : No
  27. Statistics Tags Issue                    : no_variable_data 1970-01-01 00:00:00 / no_variable_data 2010-02-22 21:41:29
  28. FromStats_BitRate                        : 9050304
  29. FromStats_Duration                       : 01:43:41.632000000
  30. FromStats_FrameCount                     : 149170
  31. FromStats_StreamSize                     : 7038458395

  32. Audio
  33. ID                                       : 2
  34. Format                                   : DTS
  35. Format/Info                              : Digital Theater Systems
  36. Codec ID                                 : A_DTS
  37. Duration                                 : 1 h 43 min
  38. Bit rate mode                            : Constant
  39. Bit rate                                 : 1 509 kb/s
  40. Channel(s)                               : 6 channels
  41. Channel layout                           : C L R Ls Rs LFE
  42. Sampling rate                            : 48.0 kHz
  43. Frame rate                               : 93.750 FPS (512 SPF)
  44. Bit depth                                : 24 bits
  45. Compression mode                         : Lossy
  46. Stream size                              : 1.09 GiB (14%)
  47. Language                                 : English
  48. Default                                  : Yes
  49. Forced                                   : No
  50. Statistics Tags Issue                    : no_variable_data 1970-01-01 00:00:00 / no_variable_data 2010-02-22 21:41:29
  51. FromStats_BitRate                        : 1508999
  52. FromStats_Duration                       : 01:43:41.643000000
  53. FromStats_FrameCount                     : 583279
  54. FromStats_StreamSize                     : 1173557348

  55. Text #1
  56. ID                                       : 3
  57. Format                                   : UTF-8
  58. Codec ID                                 : S_TEXT/UTF8
  59. Codec ID/Info                            : UTF-8 Plain Text
  60. Title                                    : Forced
  61. Language                                 : English
  62. Default                                  : Yes
  63. Forced                                   : Yes
  64. Statistics Tags Issue                    : no_variable_data 1970-01-01 00:00:00 / no_variable_data 2010-02-22 21:41:29
  65. FromStats_BitRate                        : 6
  66. FromStats_Duration                       : 00:02:45.874000000
  67. FromStats_FrameCount                     : 6
  68. FromStats_StreamSize                     : 127

  69. Text #2
  70. ID                                       : 4
  71. Format                                   : UTF-8
  72. Codec ID                                 : S_TEXT/UTF8
  73. Codec ID/Info                            : UTF-8 Plain Text
  74. Language                                 : English
  75. Default                                  : No
  76. Forced                                   : No
  77. Statistics Tags Issue                    : no_variable_data 1970-01-01 00:00:00 / no_variable_data 2010-02-22 21:41:29
  78. FromStats_BitRate                        : 72
  79. FromStats_Duration                       : 01:40:18.262000000
  80. FromStats_FrameCount                     : 1548
  81. FromStats_StreamSize                     : 54648

  82. Text #3
  83. ID                                       : 5
  84. Format                                   : UTF-8
  85. Codec ID                                 : S_TEXT/UTF8
  86. Codec ID/Info                            : UTF-8 Plain Text
  87. Title                                    : SDH
  88. Language                                 : English
  89. Default                                  : No
  90. Forced                                   : No
  91. Statistics Tags Issue                    : no_variable_data 1970-01-01 00:00:00 / no_variable_data 2010-02-22 21:41:29
  92. FromStats_BitRate                        : 77
  93. FromStats_Duration                       : 01:41:00.888000000
  94. FromStats_FrameCount                     : 1734
  95. FromStats_StreamSize                     : 59092

  96. Menu
  97. 00:00:00.000                             : en:Chapter 01
  98. 00:07:13.600                             : en:Chapter 02
  99. 00:13:35.898                             : en:Chapter 03
  100. 00:19:19.950                             : en:Chapter 04
  101. 00:25:51.550                             : en:Chapter 05
  102. 00:32:12.848                             : en:Chapter 06
  103. 00:38:57.877                             : en:Chapter 07
  104. 00:45:25.056                             : en:Chapter 08
  105. 00:51:12.695                             : en:Chapter 09
  106. 00:56:48.071                             : en:Chapter 10
  107. 01:01:45.285                             : en:Chapter 11
  108. 01:10:52.874                             : en:Chapter 12
  109. 01:17:56.547                             : en:Chapter 13
  110. 01:25:59.029                             : en:Chapter 14
  111. 01:33:08.666                             : en:Chapter 15
  112. 01:37:12.535                             : en:Chapter 16
复制代码




                                       
                                       

                                       
                                       
                                       




回复

使用道具 举报

懒得打字嘛,点击右侧快捷回复 【右侧内容,后台自定义】
您需要登录后才可以回帖 登录 | 立即加入

本版积分规则

Archiver|小黑屋| 蓝光电影网 |网站地图

Copyright © 2021 Comsenz Inc. Powered by 蓝光电影网

蓝光电影网

本站内容由用户自主分享和转载自互联网,转载目的在于传递更多信息,并不代表本网赞同其观点和对其真实性负责。

如有侵权、违反国家法律政策行为,请联系我们,我们会第一时间及时清除和处理!

举报反馈邮箱:[email protected]

快速回复 返回顶部 返回列表