找回密码

蓝光电影网

查看: 14|回复: 0

[其他] 我们窃取秘密:维基解密的故事 We.Steal.Secrets.The.Story.of.WikiLeaks.2013.LIMITED.1080p.BluRay.x264.PROPER-VETO 8.74GB

[复制链接]
蓝光币
511
发表于 2020-9-21 11:38:51 | 显示全部楼层 |阅读模式


◎译  名 我们窃取奥秘:维基解密的故事
◎片  名 We Steal Secrets: The Story of WikiLeaks
◎年  代 2013
◎产  地 美国
◎类  别 记载片
◎语  言 英语
◎上映日期 2013-01-21(圣丹斯电影节) / 2013-05-24(美国)
◎IMDb评分  6.9/10 from 7366 users
◎IMDb链接  https://www.imdb.com/title/tt1824254/
◎豆瓣评分 7.9/10 from 1455 users
◎豆瓣链接 https://movie.douban.com/subject/20451129/
◎片  长 130分钟
◎导  演 亚历克斯·吉布尼 Alex Gibney
◎编  剧 亚历克斯·吉布尼 Alex Gibney
◎主  演 朱利安·阿桑奇 Julian Assange
       阿德里安·拉莫 Adrian Lamo
       布拉德利·曼宁 Bradley Manning
       James Ball  
       迈克尔·海登 Michael Hayden
       Timothy Douglas Webster
       Smári McCarthy
       Michael Hayden
       丹尼尔·多姆沙伊特·伯格 Daniel Domscheit-Berg
◎标  签 记载片 | 美国 | 黑客 | 2013 | 收集 | 政治 | 科技 | 我们窃取奥秘:维基解密的故事
◎简  介


  记载片饶有爱好地从多种层面描写了信息时代的通明度和我们对真相的永久不依不饶的探访。影片详述了朱利安·阿桑奇(Julian Assange)维基解密网站(WikiLeaks)的诞生,这个网站滋长了美国有史以来最大的平安缺口。影片描写了这一奥秘网站的兴衰,其中穿插着美国陆军兵士布拉德利·曼宁(Bradley Manning)保密事务,这个使人不安的高智商兵士从美国军事和交际办事器高低载了几十万个文档。
◎获奖情况
  第66届美国编剧工会奖 ?(2014)
  电影奖最好记载片剧本(提名) 亚历克斯·吉布尼
  
  第25届美国制片野生会奖 ?(2014)
  最好记载片制片人奖 亚历克西斯·布鲁姆?/?马克·施姆格?/?亚历克斯·吉布尼
  
  第34届伦敦影评人协会奖 ?(2014)
  年度记载片(提名)
  
  第13届凤凰城影评人协会奖 ?(2013)
  最好记载片(提名)
  1. Video
  2. ID                                       : 1
  3. Format                                   : AVC
  4. Format/Info                              : Advanced Video Codec
  5. Format profile                           : [email protected]
  6. Format settings                          : CABAC / 4 Ref Frames
  7. Format settings, CABAC                   : Yes
  8. Format settings, Reference frames        : 4 frames
  9. Codec ID                                 : V_MPEG4/ISO/AVC
  10. Duration                                 : 2 h 9 min
  11. Bit rate                                 : 8 139 kb/s
  12. Width                                    : 1 920 pixels
  13. Height                                   : 1 040 pixels
  14. Display aspect ratio                     : 1.85:1
  15. Frame rate mode                          : Constant
  16. Frame rate                               : 23.976 (24000/1001/189150) FPS
  17. Color space                              : YUV
  18. Chroma subsampling                       : 4:2:0
  19. Bit depth                                : 8 bits
  20. Scan type                                : Progressive
  21. Bits/(Pixel*Frame)                       : 0.170
  22. Stream size                              : 7.20 GiB (82%)
  23. Writing library                          : x264 core 140 r2377 1ca7bb9
  24. Encoding settings                        : cabac=1 / ref=4 / deblock=1:0:0 / analyse=0x3:0x133 / me=umh / subme=7 / psy=1 / psy_rd=1.00:0.00 / mixed_ref=1 / me_range=16 / chroma_me=1 / trellis=1 / 8x8dct=1 / cqm=0 / deadzone=21,11 / fast_pskip=0 / chroma_qp_offset=-2 / threads=18 / lookahead_threads=3 / sliced_threads=0 / nr=0 / decimate=1 / interlaced=0 / bluray_compat=0 / constrained_intra=0 / bframes=3 / b_pyramid=2 / b_adapt=1 / b_bias=0 / direct=1 / weightb=1 / open_gop=0 / weightp=1 / keyint=250 / keyint_min=23 / scenecut=40 / intra_refresh=0 / rc_lookahead=40 / rc=2pass / mbtree=1 / bitrate=8139 / ratetol=1.0 / qcomp=0.60 / qpmin=0 / qpmax=69 / qpstep=4 / cplxblur=20.0 / qblur=0.5 / ip_ratio=1.40 / aq=1:1.00
  25. Language                                 : English
  26. Default                                  : Yes
  27. Forced                                   : No

  28. Audio
  29. ID                                       : 2
  30. Format                                   : DTS
  31. Format/Info                              : Digital Theater Systems
  32. Codec ID                                 : A_DTS
  33. Duration                                 : 2 h 9 min
  34. Bit rate mode                            : Constant
  35. Bit rate                                 : 1 509 kb/s
  36. Channel(s)                               : 6 channels
  37. Channel layout                           : C L R Ls Rs LFE
  38. Sampling rate                            : 48.0 kHz
  39. Frame rate                               : 93.750 FPS (512 SPF)
  40. Bit depth                                : 24 bits
  41. Compression mode                         : Lossy
  42. Stream size                              : 1.37 GiB (16%)
  43. Language                                 : English
  44. Default                                  : Yes
  45. Forced                                   : No

  46. Text
  47. ID                                       : 3
  48. Format                                   : UTF-8
  49. Codec ID                                 : S_TEXT/UTF8
  50. Codec ID/Info                            : UTF-8 Plain Text
  51. Title                                    : Forced
  52. Language                                 : English
  53. Default                                  : Yes
  54. Forced                                   : Yes

  55. Menu
  56. 00:00:00.000                             : en:00:00:00.000
  57. 00:05:12.562                             : en:00:05:12.562
  58. 00:12:00.470                             : en:00:12:00.470
  59. 00:17:16.494                             : en:00:17:16.494
  60. 00:21:28.662                             : en:00:21:28.662
  61. 00:25:56.638                             : en:00:25:56.638
  62. 00:29:54.793                             : en:00:29:54.793
  63. 00:36:40.698                             : en:00:36:40.698
  64. 00:43:03.664                             : en:00:43:03.664
  65. 00:49:00.521                             : en:00:49:00.521
  66. 00:57:37.120                             : en:00:57:37.120
  67. 01:05:12.659                             : en:01:05:12.659
  68. 01:12:11.577                             : en:01:12:11.577
  69. 01:22:12.594                             : en:01:22:12.594
  70. 01:30:18.413                             : en:01:30:18.413
  71. 01:37:01.024                             : en:01:37:01.024
  72. 01:46:34.930                             : en:01:46:34.930
  73. 01:56:39.993                             : en:01:56:39.993
  74. 02:00:24.676                             : en:02:00:24.676
  75. 02:07:59.797                             : en:02:07:59.797
复制代码





                                       
                                       

                                       
                                       
                                       




回复

使用道具 举报

懒得打字嘛,点击右侧快捷回复 【右侧内容,后台自定义】
您需要登录后才可以回帖 登录 | 立即加入

本版积分规则

Archiver|小黑屋| 蓝光电影网 |网站地图

Copyright © 2021 Comsenz Inc. Powered by 蓝光电影网

蓝光电影网

本站内容由用户自主分享和转载自互联网,转载目的在于传递更多信息,并不代表本网赞同其观点和对其真实性负责。

如有侵权、违反国家法律政策行为,请联系我们,我们会第一时间及时清除和处理!

举报反馈邮箱:[email protected]

快速回复 返回顶部 返回列表