找回密码

蓝光电影网

查看: 45|回复: 0

[剧情] 致命化身/心魔惊魂 Mary.Reilly.1996.1080p.BluRay.REMUX.AVC.LPCM.2.0-FGT 21.41GB

[复制链接]
蓝光币
733
发表于 2019-8-30 17:13:23 | 显示全部楼层 |阅读模式


◎译  名 致命化身 / 心魔惊魂 / 玛莉?雷莉 / 血魔惊魂
◎片  名 Mary Reilly
◎年  代 1996
◎产  地 美国
◎类  别 剧情 / 惊悚 / 可骇
◎语  言 英语
◎上映日期 1996-02-23
◎IMDb评分  5.8/10 from 13367 users
◎IMDb链接  http://www.imdb.com/title/tt0117002
◎豆瓣评分 6.6/10 from 300 users
◎豆瓣链接 https://movie.douban.com/subject/1301577/
◎片  长 108 分钟
◎导  演 Stephen Frears
◎编  剧 Christopher Hampton
◎主  演 Julia Roberts
       John Malkovich
       Michael Gambon
       Glenn Close
       Michael Sheen

◎标  签 JuliaRoberts | 美国 | 朱莉娅·罗伯茨 | 惊悚 | 悬疑 | JohnMalkovich | 美国电影 | 科幻
◎简  介  
  按照著名《化身博士》的故事改编,经过博士家中女佣玛丽的概念来诠释。茱莉亚以朴实的女仆装贯串全场,变色龙约翰马可维奇饰演身心交兵疲累的化身博士。
  童年時期經常被父親凌虐的瑪莉,在母親放置下,成為名流人士家中的女傭,以躲避家暴风险。從十二歲起開始幫傭的她,自從成為傑高博士的身邊忠心女僕後,第一次感应身心上的「平安感」。就在此時,傑高博士忽然宣佈他的助手艾伍德將進駐研讨室,協助他的實驗進行。面對傑高博士的善良寬厚與艾伍德的致命吸引力,瑪莉身陷其中不成自拔。此時,殺人命案緊接發生,瑪莉明瞭該是自己面對悲慘童年陰影,以及慾望所帶來危險的時分...
◎获奖情况  
  第46届柏林国际电影节(1996)
  金熊奖 最好影片(提名) 斯蒂芬·弗雷斯
  1. Video
  2. ID                                       : 1
  3. Format                                   : AVC
  4. Format/Info                              : Advanced Video Codec
  5. Format profile                           : [email protected]
  6. Format settings                          : CABAC / 4 Ref Frames
  7. Format settings, CABAC                   : Yes
  8. Format settings, Reference frames        : 4 frames
  9. Format settings, GOP                     : M=3, N=23
  10. Codec ID                                 : V_MPEG4/ISO/AVC
  11. Duration                                 : 1 h 48 min
  12. Bit rate mode                            : Constant
  13. Bit rate                                 : 27.0 Mb/s
  14. Width                                    : 1 920 pixels
  15. Height                                   : 1 080 pixels
  16. Display aspect ratio                     : 16:9
  17. Frame rate mode                          : Constant
  18. Frame rate                               : 23.976 (24000/1001) FPS
  19. Standard                                 : NTSC
  20. Color space                              : YUV
  21. Chroma subsampling                       : 4:2:0
  22. Bit depth                                : 8 bits
  23. Scan type                                : Progressive
  24. Bits/(Pixel*Frame)                       : 0.543
  25. Stream size                              : 20.2 GiB (95%)
  26. Title                                    : Mary.Reilly.1996.1080p.BluRay.REMUX.AVC.LPCM.2.0-FGT
  27. Language                                 : English
  28. Default                                  : No
  29. Forced                                   : No
  30. Color range                              : Limited
  31. Color primaries                          : BT.709
  32. Transfer characteristics                 : BT.709
  33. Matrix coefficients                      : BT.709
  34. Audio
  35. ID                                       : 2
  36. Format                                   : PCM
  37. Format settings                          : Little / Signed
  38. Codec ID                                 : A_PCM/INT/LIT
  39. Duration                                 : 1 h 48 min
  40. Bit rate mode                            : Constant
  41. Bit rate                                 : 1 536 kb/s
  42. Channel(s)                               : 2 channels
  43. Sampling rate                            : 48.0 kHz
  44. Frame rate                               : 30.000 FPS (1600 SPF)
  45. Bit depth                                : 16 bits
  46. Stream size                              : 1.16 GiB (5%)
  47. Title                                    : Mary.Reilly.1996.1080p.BluRay.REMUX.AVC.LPCM.2.0-FGT
  48. Language                                 : English
  49. Default                                  : Yes
  50. Forced                                   : No
  51. Text
  52. ID                                       : 3
  53. Format                                   : PGS
  54. Muxing mode                              : zlib
  55. Codec ID                                 : S_HDMV/PGS
  56. Codec ID/Info                            : Picture based subtitle format used on BDs/HD-DVDs
  57. Duration                                 : 1 h 43 min
  58. Bit rate                                 : 17.8 kb/s
  59. Count of elements                        : 1621
  60. Stream size                              : 13.2 MiB (0%)
  61. Title                                    : English-PGS
  62. Language                                 : English
  63. Default                                  : Yes
  64. Forced                                   : No
  65. Menu
  66. 00:00:00.000                             : en:Chapter 01
  67. 00:10:43.184                             : en:Chapter 02
  68. 00:22:30.098                             : en:Chapter 03
  69. 00:37:14.732                             : en:Chapter 04
  70. 00:53:22.449                             : en:Chapter 05
  71. 01:05:53.157                             : en:Chapter 06
  72. 01:17:28.352                             : en:Chapter 07
  73. 01:29:24.400                             : en:Chapter 08
  74. 01:34:43.386                             : en:Chapter 09
  75. 01:45:14.182                             : en:Chapter 10
复制代码






                                       
                                       

                                       
                                       
                                       




回复

使用道具 举报

懒得打字嘛,点击右侧快捷回复 【右侧内容,后台自定义】
您需要登录后才可以回帖 登录 | 立即加入

本版积分规则

Archiver|小黑屋| 蓝光电影网 |网站地图

Copyright © 2021 Comsenz Inc. Powered by 蓝光电影网

蓝光电影网

本站内容由用户自主分享和转载自互联网,转载目的在于传递更多信息,并不代表本网赞同其观点和对其真实性负责。

如有侵权、违反国家法律政策行为,请联系我们,我们会第一时间及时清除和处理!

举报反馈邮箱:[email protected]

快速回复 返回顶部 返回列表