找回密码

蓝光电影网

查看: 11|回复: 0

[动作] 电人查勃卡 Karate.Robo.Zaborgar.2011.JAPANESE.1080p.BluRay.x264-HANDJOB 9.28GB

[复制链接]
蓝光币
515
发表于 2019-8-8 18:19:37 | 显示全部楼层 |阅读模式
[img]https://img1.doubanio.com/view/photo/l_ratio_poster/public/p1350333727.jpg[img]
◎译  名 电人查勃卡 / Denjin Zaborgar / Electroid Zaborger / 电人史柏加
◎片  名 電人ザボーガー 劇場版
◎年  代 2011
◎产  地 日本
◎类  别 行动
◎语  言 日语
◎IMDb评分  6.4/10 from 449 users
◎IMDb链接  http://www.imdb.com/title/tt1645048
◎豆瓣评分 0/10 from 0 users
◎豆瓣链接 https://movie.douban.com/subject/4847829/
◎片  长 114分钟(日本)
◎导  演 井口升 Noboru Iguchi
◎主  演 板尾创路 Itsuji Itao
       古原靖久
       柄本明 Akira Emoto
       山崎实在 Mami Yamasaki
       竹中直人 Naoto Takenaka

◎标  签 日本 | 井口昇 | 日本电影 | 特攝 | 特摄 | 板尾創路 | 2011 | 科幻
◎简  介  
  天赋科学家恶之宫博士(柄本明 饰)在遭到国家的变节以后,满怀着冤仇怒火组建了邪恶细胞军团Σ。他号令爪牙四周抓捕并吸收政要的细胞,以制造足以扑灭天下的可骇兵器。在此时代,于遗传范畴有着卓绝进献的大门勇博士(竹中直人 饰)拒绝与恶之宫合作而惨遭杀戮。大门博士的儿子大门丰(古原靖久 饰)与父亲开辟的电人查勃卡为了正义,与细胞军展开艰辛卓绝的斗争,时代还与本为仇敌的博格蜜斯(山崎实在 饰)。可是,他所笃定对峙的正义终极将查勃卡引向衰亡。25年后,失意不胜的大门丰(板尾创路 饰)委身于无良政客若杉(木下ほうか 饰),受尽屈辱,而恶之宫的邪恶计划则接近完成……
  本片按照20世纪70年月同名特摄剧改编。
  1. Video
  2. ID                                       : 3
  3. Format                                   : AVC
  4. Format/Info                              : Advanced Video Codec
  5. Format profile                           : [email protected]
  6. Format settings                          : CABAC / 5 Ref Frames
  7. Format settings, CABAC                   : Yes
  8. Format settings, Reference frames        : 5 frames
  9. Codec ID                                 : V_MPEG4/ISO/AVC
  10. Duration                                 : 1 h 54 min
  11. Bit rate                                 : 11.0 Mb/s
  12. Width                                    : 1 916 pixels
  13. Height                                   : 816 pixels
  14. Display aspect ratio                     : 2.35:1
  15. Frame rate mode                          : Constant
  16. Frame rate                               : 23.976 (24000/1001) FPS
  17. Color space                              : YUV
  18. Chroma subsampling                       : 4:2:0
  19. Bit depth                                : 8 bits
  20. Scan type                                : Progressive
  21. Bits/(Pixel*Frame)                       : 0.293
  22. Stream size                              : 8.76 GiB (94%)
  23. Writing library                          : x264 core 157 r2935 545de2f
  24. Encoding settings                        : cabac=1 / ref=5 / deblock=1:-3:-3 / analyse=0x3:0x133 / me=umh / subme=10 / psy=1 / psy_rd=1.00:0.00 / mixed_ref=1 / me_range=32 / chroma_me=1 / trellis=2 / 8x8dct=1 / cqm=0 / deadzone=21,11 / fast_pskip=0 / chroma_qp_offset=-2 / threads=25 / lookahead_threads=6 / sliced_threads=0 / nr=0 / decimate=0 / interlaced=0 / bluray_compat=0 / constrained_intra=0 / bframes=16 / b_pyramid=2 / b_adapt=2 / b_bias=0 / direct=3 / weightb=1 / open_gop=0 / weightp=2 / keyint=240 / keyint_min=24 / scenecut=40 / intra_refresh=0 / rc_lookahead=60 / rc=crf / mbtree=0 / crf=17.0 / qcomp=0.60 / qpmin=0 / qpmax=69 / qpstep=4 / vbv_maxrate=62500 / vbv_bufsize=78125 / crf_max=0.0 / nal_hrd=none / filler=0 / ip_ratio=1.40 / pb_ratio=1.30 / aq=2:1.00
  25. Default                                  : Yes
  26. Forced                                   : No
  27. Color range                              : Limited
  28. Color primaries                          : BT.709
  29. Transfer characteristics                 : BT.709
  30. Matrix coefficients                      : BT.709
  31. Audio
  32. ID                                       : 2
  33. Format                                   : AC-3
  34. Format/Info                              : Audio Coding 3
  35. Commercial name                          : Dolby Digital
  36. Codec ID                                 : A_AC3
  37. Duration                                 : 1 h 54 min
  38. Bit rate mode                            : Constant
  39. Bit rate                                 : 640 kb/s
  40. Channel(s)                               : 6 channels
  41. Channel layout                           : L R C LFE Ls Rs
  42. Sampling rate                            : 48.0 kHz
  43. Frame rate                               : 31.250 FPS (1536 SPF)
  44. Bit depth                                : 16 bits
  45. Compression mode                         : Lossy
  46. Stream size                              : 523 MiB (6%)
  47. Language                                 : Japanese
  48. Service kind                             : Complete Main
  49. Default                                  : Yes
  50. Forced                                   : No
  51. Text
  52. ID                                       : 1
  53. Format                                   : UTF-8
  54. Codec ID                                 : S_TEXT/UTF8
  55. Codec ID/Info                            : UTF-8 Plain Text
  56. Duration                                 : 1 h 53 min
  57. Bit rate                                 : 35 b/s
  58. Count of elements                        : 1350
  59. Stream size                              : 29.5 KiB (0%)
  60. Language                                 : English
  61. Default                                  : Yes
  62. Forced                                   : No
复制代码






                                       
                                       

                                       
                                       
                                       




回复

使用道具 举报

懒得打字嘛,点击右侧快捷回复 【右侧内容,后台自定义】
您需要登录后才可以回帖 登录 | 立即加入

本版积分规则

Archiver|小黑屋| 蓝光电影网 |网站地图

Copyright © 2021 Comsenz Inc. Powered by 蓝光电影网

蓝光电影网

本站内容由用户自主分享和转载自互联网,转载目的在于传递更多信息,并不代表本网赞同其观点和对其真实性负责。

如有侵权、违反国家法律政策行为,请联系我们,我们会第一时间及时清除和处理!

举报反馈邮箱:[email protected]

快速回复 返回顶部 返回列表