找回密码

蓝光电影网

查看: 45|回复: 0

[动作] 虎胆悍将 Hard.Kill.2020.1080p.BluRay.REMUX.AVC.DTS-HD.MA.5.1-FGT 18.09GB

[复制链接]
蓝光币
511
发表于 2020-9-9 09:10:12 | 显示全部楼层 |阅读模式


◎译  名 虎胆悍将/Open Source
◎片  名 Hard Kill
◎年  代 2020
◎产  地 美国
◎类  别 行动
◎语  言 英语
◎上映日期 2020-08-21(美国收集)
◎IMDb评分  2.9/10 from 1307 users
◎IMDb链接  https://www.imdb.com/title/tt11656172/
◎豆瓣评分 3.4/10 from 151 users
◎豆瓣链接 https://movie.douban.com/subject/34971648/
◎片  长 98分钟
◎导  演 马特·伊斯坎达里 Matt Eskandari
◎编  剧 乔·罗素 Joe Russo
◎主  演 布鲁斯·威利斯 Bruce Willis
       特夏斯·巴特尔 Texas Battle
       斯温·特梅尔 Swen Temmel
       杰西·麦特卡尔菲 Jesse Metcalfe
◎标  签 行动 | 2020 | 美国 | 犯罪 | 布鲁斯·威利斯 | 烂片中的烂片 | 磨叽 | 碟碟不休
◎简  介


  亿万富翁科技公司首席履行官多诺万·查尔莫斯的工作很是有代价,他雇佣雇佣兵来庇护它,一个可骇构造为此绑架了他的女儿以求获得它。
  1. Video
  2. ID                                       : 1
  3. ID in the original source medium         : 4113 (0x1011)
  4. Format                                   : AVC
  5. Format/Info                              : Advanced Video Codec
  6. Format profile                           : [email protected]
  7. Format settings                          : CABAC / 3 Ref Frames
  8. Format settings, CABAC                   : Yes
  9. Format settings, Reference frames        : 3 frames
  10. Codec ID                                 : V_MPEG4/ISO/AVC
  11. Duration                                 : 1 h 38 min
  12. Bit rate mode                            : Variable
  13. Bit rate                                 : 23.0 Mb/s
  14. Maximum bit rate                         : 35.0 Mb/s
  15. Width                                    : 1 920 pixels
  16. Height                                   : 1 080 pixels
  17. Display aspect ratio                     : 16:9
  18. Frame rate mode                          : Constant
  19. Frame rate                               : 23.976 (24000/1001/189150) FPS
  20. Standard                                 : NTSC
  21. Color space                              : YUV
  22. Chroma subsampling                       : 4:2:0
  23. Bit depth                                : 8 bits
  24. Scan type                                : Progressive
  25. Bits/(Pixel*Frame)                       : 0.462
  26. Stream size                              : 15.8 GiB (87%)
  27. Title                                    : Hard.Kill.2020.1080p.BluRay.REMUX.AVC.DTS-HD.MA.5.1-FGT
  28. Language                                 : English
  29. Default                                  : No
  30. Forced                                   : No
  31. Color range                              : Limited
  32. Color primaries                          : BT.709
  33. Transfer characteristics                 : BT.709
  34. Matrix coefficients                      : BT.709
  35. Original source medium                   : Blu-ray
  36. Audio #1
  37. ID                                       : 2
  38. ID in the original source medium         : 4352 (0x1100)
  39. Format                                   : DTS XLL
  40. Format/Info                              : Digital Theater Systems
  41. Commercial name                          : DTS-HD Master Audio
  42. Codec ID                                 : A_DTS
  43. Duration                                 : 1 h 38 min
  44. Bit rate mode                            : Variable
  45. Bit rate                                 : 1 802 kb/s
  46. Channel(s)                               : 6 channels
  47. Channel layout                           : C L R Ls Rs LFE
  48. Sampling rate                            : 48.0 kHz
  49. Frame rate                               : 93.750 FPS (512 SPF)
  50. Bit depth                                : 16 bits
  51. Compression mode                         : Lossless
  52. Stream size                              : 1.24 GiB (7%)
  53. Title                                    : Hard.Kill.2020.1080p.BluRay.REMUX.AVC.DTS-HD.MA.5.1-FGT
  54. Language                                 : English
  55. Default                                  : Yes
  56. Forced                                   : No
  57. Original source medium                   : Blu-ray
  58. Audio #2
  59. ID                                       : 3
  60. ID in the original source medium         : 4353 (0x1101)
  61. Format                                   : PCM
  62. Format settings                          : Little / Signed
  63. Codec ID                                 : A_PCM/INT/LIT
  64. Duration                                 : 1 h 38 min
  65. Bit rate mode                            : Constant
  66. Bit rate                                 : 1 536 kb/s
  67. Channel(s)                               : 2 channels
  68. Sampling rate                            : 48.0 kHz
  69. Frame rate                               : 30.000 FPS (1600 SPF)
  70. Bit depth                                : 16 bits
  71. Stream size                              : 1.06 GiB (6%)
  72. Title                                    : Hard.Kill.2020.1080p.BluRay.REMUX.AVC.DTS-HD.MA.5.1-FGT
  73. Language                                 : English
  74. Default                                  : No
  75. Forced                                   : No
  76. Original source medium                   : Blu-ray
  77. Text #1
  78. ID                                       : 4
  79. Format                                   : UTF-8
  80. Codec ID                                 : S_TEXT/UTF8
  81. Codec ID/Info                            : UTF-8 Plain Text
  82. Duration                                 : 1 h 30 min
  83. Bit rate                                 : 40 b/s
  84. Count of elements                        : 1008
  85. Stream size                              : 26.7 KiB (0%)
  86. Title                                    : English-SRT
  87. Language                                 : English
  88. Default                                  : Yes
  89. Forced                                   : No
  90. Text #2
  91. ID                                       : 5
  92. ID in the original source medium         : 4608 (0x1200)
  93. Format                                   : PGS
  94. Muxing mode                              : zlib
  95. Codec ID                                 : S_HDMV/PGS
  96. Codec ID/Info                            : Picture based subtitle format used on BDs/HD-DVDs
  97. Duration                                 : 1 h 30 min
  98. Bit rate                                 : 24.4 kb/s
  99. Count of elements                        : 2280
  100. Stream size                              : 15.8 MiB (0%)
  101. Title                                    : English-PGS
  102. Language                                 : English
  103. Default                                  : No
  104. Forced                                   : No
  105. Original source medium                   : Blu-ray
  106. Menu
  107. 00:00:00.000                             : en:Chapter 00
  108. 00:16:07.341                             : en:Chapter 01
  109. 00:34:45.708                             : en:Chapter 02
  110. 00:53:51.519                             : en:Chapter 03
  111. 01:09:08.769                             : en:Chapter 04
  112. 01:29:56.265                             : en:Chapter 05
复制代码






                                       
                                       

                                       
                                       
                                       




回复

使用道具 举报

懒得打字嘛,点击右侧快捷回复 【右侧内容,后台自定义】
您需要登录后才可以回帖 登录 | 立即加入

本版积分规则

Archiver|小黑屋| 蓝光电影网 |网站地图

Copyright © 2021 Comsenz Inc. Powered by 蓝光电影网

蓝光电影网

本站内容由用户自主分享和转载自互联网,转载目的在于传递更多信息,并不代表本网赞同其观点和对其真实性负责。

如有侵权、违反国家法律政策行为,请联系我们,我们会第一时间及时清除和处理!

举报反馈邮箱:[email protected]

快速回复 返回顶部 返回列表