找回密码

蓝光电影网

查看: 13|回复: 0

[喜剧] 巴尼·汤姆森传奇 The.Legend.of.Barney.Thomson.2015.1080p.BluRay.X264-AMIABLE 6.56GB

[复制链接]
蓝光币
515
发表于 2020-11-30 09:07:36 | 显示全部楼层 |阅读模式


◎译  名 巴尼·汤姆森传奇/The Long Midnight of Barney Thomson/疯狂杀手剃头师(台)
◎片  名 The Legend of Barney Thomson
◎年  代 2015
◎产  地 英国/加拿大/美国
◎类  别 笑剧 / 犯罪
◎语  言 英语
◎上映日期 2015-06-17(爱丁堡电影节) / 2015-07-24(英国)
◎IMDb评分  6.3/10 from 5264 users
◎IMDb链接  https://www.imdb.com/title/tt2552394/
◎豆瓣评分 6.9/10 from 780 users
◎豆瓣链接 https://movie.douban.com/subject/25832821/
◎片  长 96分钟
◎导  演 罗伯特·卡莱尔 Robert Carlyle
◎编  剧 理查德·考恩 Richard Cowan / 道格拉斯·林赛 Douglas Lindsay / 柯林·迈凯轮 Colin McLaren
◎主  演 罗伯特·卡莱尔 Robert Carlyle
       艾玛·汤普森 Emma Thompson
       詹姆斯·科兹莫 James Cosmo
       雷·温斯顿 Ray Winstone
       阿什利·詹森 Ashley Jensen
       马丁·康普斯顿 Martin Compston
       汤姆·康特奈 Tom Courtenay
       凯文·格思里 Kevin Guthrie
       塞缪尔·罗伯森 Samuel Robertson
       斯特芬·马克尔 Stephen McCole
       布赖恩·佩蒂福 Brian Pettifer
       芬利·威尔士 Finlay Welsh
       大卫·斯皮德 David Speed
       詹姆斯·凯西 James Casey
       戴维·麦克高文 David McGowan
◎标  签 英国 | 黑色诙谐 | 笑剧 | 犯罪 | 2015 | 苏格兰 | 黑色 | 嘲讽
◎简  介


  《巴尼·汤姆森传奇》由苏格兰男演员罗伯特·卡莱尔主演,这部影片也是卡莱尔的导演童贞作。影片报告了仆人公汤姆森在苏格兰最大城市格拉斯哥一家剃头店工作时代因争论失手杀死老板,并向自己滑稽且性情暴烈的母亲乞助,随后堕入一系列误杀事务。母亲一角由奥斯卡影后、英国女演员埃玛·汤普森饰演,她在剧中花枝招展且措辞操着格拉斯哥口音,使人印象深入。
  1. Video
  2. ID                                       : 1
  3. Format                                   : AVC
  4. Format/Info                              : Advanced Video Codec
  5. Format profile                           : [email protected]
  6. Format settings                          : CABAC / 5 Ref Frames
  7. Format settings, CABAC                   : Yes
  8. Format settings, Reference frames        : 5 frames
  9. Codec ID                                 : V_MPEG4/ISO/AVC
  10. Duration                                 : 1 h 32 min
  11. Bit rate                                 : 8 687 kb/s
  12. Width                                    : 1 920 pixels
  13. Height                                   : 808 pixels
  14. Display aspect ratio                     : 2.40:1
  15. Frame rate mode                          : Constant
  16. Frame rate                               : 25.000 FPS
  17. Color space                              : YUV
  18. Chroma subsampling                       : 4:2:0
  19. Bit depth                                : 8 bits
  20. Scan type                                : Progressive
  21. Bits/(Pixel*Frame)                       : 0.224
  22. Stream size                              : 5.46 GiB (83%)
  23. Writing library                          : x264 core 148 r2705 3f5ed56
  24. Encoding settings                        : cabac=1 / ref=5 / deblock=1:-3:-3 / analyse=0x3:0x113 / me=umh / subme=8 / psy=1 / psy_rd=1.00:0.00 / mixed_ref=1 / me_range=32 / chroma_me=1 / trellis=1 / 8x8dct=1 / cqm=0 / deadzone=21,11 / fast_pskip=1 / chroma_qp_offset=-2 / threads=24 / lookahead_threads=4 / sliced_threads=0 / nr=0 / decimate=1 / interlaced=0 / bluray_compat=0 / constrained_intra=0 / bframes=3 / b_pyramid=2 / b_adapt=2 / b_bias=0 / direct=3 / weightb=1 / open_gop=0 / weightp=2 / keyint=250 / keyint_min=25 / scenecut=40 / intra_refresh=0 / rc_lookahead=50 / rc=2pass / mbtree=1 / bitrate=8687 / ratetol=1.0 / qcomp=0.60 / qpmin=0 / qpmax=69 / qpstep=4 / cplxblur=20.0 / qblur=0.5 / ip_ratio=1.40 / aq=3:0.80
  25. Default                                  : Yes
  26. Forced                                   : No
  27. Statistics Tags Issue                    : no_variable_data 1970-01-01 00:00:00 / no_variable_data 2010-02-22 21:41:29
  28. FromStats_BitRate                        : 8683613
  29. FromStats_Duration                       : 01:32:04.000000000
  30. FromStats_FrameCount                     : 138100
  31. FromStats_StreamSize                     : 5996035121

  32. Audio
  33. ID                                       : 2
  34. Format                                   : DTS
  35. Format/Info                              : Digital Theater Systems
  36. Codec ID                                 : A_DTS
  37. Duration                                 : 1 h 32 min
  38. Bit rate mode                            : Constant
  39. Bit rate                                 : 1 509 kb/s
  40. Channel(s)                               : 6 channels
  41. Channel layout                           : C L R Ls Rs LFE
  42. Sampling rate                            : 48.0 kHz
  43. Frame rate                               : 93.750 FPS (512 SPF)
  44. Bit depth                                : 24 bits
  45. Compression mode                         : Lossy
  46. Stream size                              : 994 MiB (15%)
  47. Language                                 : English
  48. Default                                  : Yes
  49. Forced                                   : No
  50. Statistics Tags Issue                    : no_variable_data 1970-01-01 00:00:00 / no_variable_data 2010-02-22 21:41:29
  51. FromStats_BitRate                        : 1508999
  52. FromStats_Duration                       : 01:32:03.958000000
  53. FromStats_FrameCount                     : 517871
  54. FromStats_StreamSize                     : 1041956452

  55. Text #1
  56. ID                                       : 3
  57. Format                                   : UTF-8
  58. Codec ID                                 : S_TEXT/UTF8
  59. Codec ID/Info                            : UTF-8 Plain Text
  60. Language                                 : English
  61. Default                                  : No
  62. Forced                                   : No
  63. Statistics Tags Issue                    : no_variable_data 1970-01-01 00:00:00 / no_variable_data 2010-02-22 21:41:29
  64. FromStats_BitRate                        : 69
  65. FromStats_Duration                       : 01:30:29.318000000
  66. FromStats_FrameCount                     : 1765
  67. FromStats_StreamSize                     : 47297

  68. Text #2
  69. ID                                       : 4
  70. Format                                   : UTF-8
  71. Codec ID                                 : S_TEXT/UTF8
  72. Codec ID/Info                            : UTF-8 Plain Text
  73. Title                                    : SDH
  74. Language                                 : English
  75. Default                                  : No
  76. Forced                                   : No
  77. Statistics Tags Issue                    : no_variable_data 1970-01-01 00:00:00 / no_variable_data 2010-02-22 21:41:29
  78. FromStats_BitRate                        : 77
  79. FromStats_Duration                       : 01:30:29.318000000
  80. FromStats_FrameCount                     : 1898
  81. FromStats_StreamSize                     : 52340

  82. Menu
  83. 00:00:00.000                             : en:00:00:00.000
  84. 00:06:20.240                             : en:00:06:20.240
  85. 00:12:30.320                             : en:00:12:30.320
  86. 00:20:56.080                             : en:00:20:56.080
  87. 00:30:56.560                             : en:00:30:56.560
  88. 00:39:30.720                             : en:00:39:30.720
  89. 00:54:08.160                             : en:00:54:08.160
  90. 01:02:34.240                             : en:01:02:34.240
  91. 01:12:09.560                             : en:01:12:09.560
  92. 01:20:39.320                             : en:01:20:39.320
  93. 01:27:38.720                             : en:01:27:38.720
  94. 01:28:59.800                             : en:01:28:59.800
复制代码




                                       
                                       

                                       
                                       
                                       




回复

使用道具 举报

懒得打字嘛,点击右侧快捷回复 【右侧内容,后台自定义】
您需要登录后才可以回帖 登录 | 立即加入

本版积分规则

Archiver|小黑屋| 蓝光电影网 |网站地图

Copyright © 2021 Comsenz Inc. Powered by 蓝光电影网

蓝光电影网

本站内容由用户自主分享和转载自互联网,转载目的在于传递更多信息,并不代表本网赞同其观点和对其真实性负责。

如有侵权、违反国家法律政策行为,请联系我们,我们会第一时间及时清除和处理!

举报反馈邮箱:[email protected]

快速回复 返回顶部 返回列表