找回密码

蓝光电影网

查看: 25|回复: 0

[喜剧] 自卫艺术 The.Art.of.Self.Defense.2019.1080p.BluRay.REMUX.AVC.DTS-HD.MA.5.1-FGT 26.80GB

[复制链接]
蓝光币
515
发表于 2019-10-15 14:50:57 | 显示全部楼层 |阅读模式


◎译  名 侵占艺术
◎片  名 The Art of Self-Defense
◎年  代 2019
◎产  地 美国
◎类  别 笑剧
◎语  言 英语
◎上映日期 2019-03-10(西南偏南电影节) / 2019-06-21(美国)
◎IMDb评分  7.2/10 from 3053 users
◎IMDb链接  http://www.imdb.com/title/tt7339248
◎豆瓣评分 7.9/10 from 365 users
◎豆瓣链接 https://movie.douban.com/subject/27138615/
◎片  长 104分钟
◎导  演 莱利·斯特恩斯 Riley Stearns
◎编  剧 莱利·斯特恩斯 Riley Stearns
◎主  演 杰西·艾森伯格 Jesse Eisenberg
       亚历桑德罗·尼沃拉 Alessandro Nivola
       伊莫琴·普茨 Imogen Poots
       菲利普·安德瑞·波铁洛 Phillip Andre Botello
       勒兰德·奥瑟 Leland Orser
       乔希·法德姆 Josh Fadem
       杰森·伯基 Jason Burkey
       大卫·泽尔纳 David Zellner
       戴维·约翰逊 Davey Johnson
       Steve Terada
       Dallas Edwards

◎标  签 黑色诙谐 | 笑剧 | 美国 | JesseEisenberg | 2019 | 杰西艾森伯格 | 犯罪 | 社会
◎简  介  
  Bleecker Street购得莱利·斯特恩斯执导的黑色笑剧新片《侵占艺术》 的全球刊行权,杰西·艾森伯格、伊莫珍·波茨、亚历桑德罗·尼沃拉主演,艾森伯格饰演一个在街上莫名遭受进犯的倒霉孩子,后加入柔道练习黉舍随着极有魅力又布满奥秘的徒弟(尼沃拉饰)进修侵占防御术,揭开了布满兄弟会友谊、暴力、超男人主义的邪恶天下的面纱,波茨饰演的女配角正尽力奋斗想获得一席职位。该片已于周一在肯塔基开拍。
  1. Video
  2. ID                                       : 1
  3. Format                                   : AVC
  4. Format/Info                              : Advanced Video Codec
  5. Format profile                           : [email protected]
  6. Format settings                          : CABAC / 4 Ref Frames
  7. Format settings, CABAC                   : Yes
  8. Format settings, Reference frames        : 4 frames
  9. Format settings, GOP                     : M=3, N=12
  10. Codec ID                                 : V_MPEG4/ISO/AVC
  11. Duration                                 : 1 h 44 min
  12. Bit rate mode                            : Variable
  13. Bit rate                                 : 33.4 Mb/s
  14. Maximum bit rate                         : 36.0 Mb/s
  15. Width                                    : 1 920 pixels
  16. Height                                   : 1 080 pixels
  17. Display aspect ratio                     : 16:9
  18. Frame rate mode                          : Constant
  19. Frame rate                               : 23.976 (24000/1001) FPS
  20. Color space                              : YUV
  21. Chroma subsampling                       : 4:2:0
  22. Bit depth                                : 8 bits
  23. Scan type                                : Progressive
  24. Bits/(Pixel*Frame)                       : 0.671
  25. Stream size                              : 24.3 GiB (91%)
  26. Title                                    : The.Art.of.Self.Defense.2019.1080p.BluRay.REMUX.AVC.DTS-HD.MA.5.1-FGT
  27. Language                                 : English
  28. Default                                  : No
  29. Forced                                   : No
  30. Audio #1
  31. ID                                       : 2
  32. Format                                   : DTS XLL
  33. Format/Info                              : Digital Theater Systems
  34. Commercial name                          : DTS-HD Master Audio
  35. Codec ID                                 : A_DTS
  36. Duration                                 : 1 h 44 min
  37. Bit rate mode                            : Variable
  38. Bit rate                                 : 3 203 kb/s
  39. Channel(s)                               : 6 channels
  40. Channel layout                           : C L R Ls Rs LFE
  41. Sampling rate                            : 48.0 kHz
  42. Frame rate                               : 93.750 FPS (512 SPF)
  43. Bit depth                                : 24 bits
  44. Compression mode                         : Lossless
  45. Stream size                              : 2.33 GiB (9%)
  46. Title                                    : The.Art.of.Self.Defense.2019.1080p.BluRay.REMUX.AVC.DTS-HD.MA.5.1-FGT
  47. Language                                 : English
  48. Default                                  : Yes
  49. Forced                                   : No
  50. Audio #2
  51. ID                                       : 3
  52. Format                                   : AC-3
  53. Format/Info                              : Audio Coding 3
  54. Commercial name                          : Dolby Digital
  55. Codec ID                                 : A_AC3
  56. Duration                                 : 1 h 44 min
  57. Bit rate mode                            : Constant
  58. Bit rate                                 : 192 kb/s
  59. Channel(s)                               : 2 channels
  60. Channel layout                           : L R
  61. Sampling rate                            : 48.0 kHz
  62. Frame rate                               : 31.250 FPS (1536 SPF)
  63. Bit depth                                : 16 bits
  64. Compression mode                         : Lossy
  65. Stream size                              : 143 MiB (1%)
  66. Title                                    : The.Art.of.Self.Defense.2019.1080p.BluRay.REMUX.AVC.DTS-HD.MA.5.1-FGT
  67. Language                                 : English
  68. Service kind                             : Complete Main
  69. Default                                  : No
  70. Forced                                   : No
  71. Text #1
  72. ID                                       : 4
  73. Format                                   : UTF-8
  74. Codec ID                                 : S_TEXT/UTF8
  75. Codec ID/Info                            : UTF-8 Plain Text
  76. Duration                                 : 1 h 39 min
  77. Bit rate                                 : 52 b/s
  78. Count of elements                        : 1010
  79. Stream size                              : 38.4 KiB (0%)
  80. Title                                    : English-SRT
  81. Language                                 : English
  82. Default                                  : Yes
  83. Forced                                   : No
  84. Text #2
  85. ID                                       : 5
  86. Format                                   : PGS
  87. Muxing mode                              : zlib
  88. Codec ID                                 : S_HDMV/PGS
  89. Codec ID/Info                            : Picture based subtitle format used on BDs/HD-DVDs
  90. Duration                                 : 1 h 39 min
  91. Bit rate                                 : 38.0 kb/s
  92. Count of elements                        : 2322
  93. Stream size                              : 27.0 MiB (0%)
  94. Title                                    : English-PGS
  95. Language                                 : English
  96. Default                                  : No
  97. Forced                                   : No
  98. Text #3
  99. ID                                       : 6
  100. Format                                   : PGS
  101. Muxing mode                              : zlib
  102. Codec ID                                 : S_HDMV/PGS
  103. Codec ID/Info                            : Picture based subtitle format used on BDs/HD-DVDs
  104. Duration                                 : 1 h 42 min
  105. Bit rate                                 : 30.0 kb/s
  106. Count of elements                        : 2054
  107. Stream size                              : 22.0 MiB (0%)
  108. Title                                    : Spanish-PGS
  109. Language                                 : Spanish
  110. Default                                  : No
  111. Forced                                   : No
  112. Menu
  113. 00:00:00.000                             : en:Chapter 01
  114. 00:05:58.107                             : en:Chapter 02
  115. 00:11:27.478                             : en:Chapter 03
  116. 00:16:24.900                             : en:Chapter 04
  117. 00:22:05.574                             : en:Chapter 05
  118. 00:27:34.861                             : en:Chapter 06
  119. 00:30:49.264                             : en:Chapter 07
  120. 00:37:58.526                             : en:Chapter 08
  121. 00:43:38.616                             : en:Chapter 09
  122. 00:47:33.058                             : en:Chapter 10
  123. 00:51:34.925                             : en:Chapter 11
  124. 00:57:38.955                             : en:Chapter 12
  125. 01:02:57.690                             : en:Chapter 13
  126. 01:09:50.311                             : en:Chapter 14
  127. 01:16:10.232                             : en:Chapter 15
  128. 01:20:53.682                             : en:Chapter 16
  129. 01:24:42.994                             : en:Chapter 17
  130. 01:30:55.450                             : en:Chapter 18
  131. 01:35:38.858                             : en:Chapter 19
  132. 01:39:41.350                             : en:Chapter 20
复制代码






                                       
                                       

                                       
                                       
                                       




回复

使用道具 举报

懒得打字嘛,点击右侧快捷回复 【右侧内容,后台自定义】
您需要登录后才可以回帖 登录 | 立即加入

本版积分规则

Archiver|小黑屋| 蓝光电影网 |网站地图

Copyright © 2021 Comsenz Inc. Powered by 蓝光电影网

蓝光电影网

本站内容由用户自主分享和转载自互联网,转载目的在于传递更多信息,并不代表本网赞同其观点和对其真实性负责。

如有侵权、违反国家法律政策行为,请联系我们,我们会第一时间及时清除和处理!

举报反馈邮箱:[email protected]

快速回复 返回顶部 返回列表