找回密码

蓝光电影网

查看: 255|回复: 0

[动作] PT-218的叛军 The.Rebels.of.PT-218.2021.1080p.BluRay.REMUX.AVC.DTS-HD.MA5.1-FGT 22.33GB

[复制链接]
蓝光币
519
发表于 2021-8-20 20:58:00 | 显示全部楼层 |阅读模式


◎译  名 PT-218的叛军
◎片  名 The Rebels of PT-218
◎年  代 2021
◎产  地 美国
◎类  别 行动 / 战争 / 冒险
◎语  言 英语,意大利语,德语
◎上映日期 2021-07-16(美国)
◎豆瓣评分 /10 from 0 users
◎豆瓣链接 https://movie.douban.com/subject/35277263/
◎片  长 105分钟
◎导  演 尼克·里昂 Nick Lyon
◎编  剧 乔治·克里默 George Climer
◎主  演 林肯·霍普 Lincoln Hoppe
       吉奥夫·米德 Geoff Meed
       德里克·耶茨 Derek Yates
◎标  签 二战 | 美国 | 战争 | 剧情 | 2021 | 神剧 | WK | 美国电影
◎简  介


  Pt-218: 第二次天下大战的叛逆者,不但报告了一个实在的故事,而且告诉了我们1942年发生的工作的细节。在二战的壮盛期间,大西洋酿成了一个致命的疆场,美国潜艇与德国军队不竭的轰炸作战。
  1. Video
  2. ID                                       : 1
  3. ID in the original source medium         : 4113 (0x1011)
  4. Format                                   : AVC
  5. Format/Info                              : Advanced Video Codec
  6. Format profile                           : [email protected]
  7. Format settings                          : CABAC / 4 Ref Frames
  8. Format settings, CABAC                   : Yes
  9. Format settings, Reference frames        : 4 frames
  10. Codec ID                                 : V_MPEG4/ISO/AVC
  11. Duration                                 : 1 h 28 min
  12. Bit rate mode                            : Constant
  13. Bit rate                                 : 32.3 Mb/s
  14. Nominal bit rate                         : 34.0 Mb/s
  15. Width                                    : 1 920 pixels
  16. Height                                   : 1 080 pixels
  17. Display aspect ratio                     : 16:9
  18. Frame rate mode                          : Constant
  19. Frame rate                               : 23.976 (24000/1001/189150) FPS
  20. Color space                              : YUV
  21. Chroma subsampling                       : 4:2:0
  22. Bit depth                                : 8 bits
  23. Scan type                                : Progressive
  24. Bits/(Pixel*Frame)                       : 0.649
  25. Stream size                              : 19.9 GiB (89%)
  26. Language                                 : English
  27. Default                                  : No
  28. Forced                                   : No
  29. Original source medium                   : Blu-ray
  30. Audio #1
  31. ID                                       : 2
  32. ID in the original source medium         : 4352 (0x1100)
  33. Format                                   : DTS XLL
  34. Format/Info                              : Digital Theater Systems
  35. Commercial name                          : DTS-HD Master Audio
  36. Codec ID                                 : A_DTS
  37. Duration                                 : 1 h 28 min
  38. Bit rate mode                            : Variable
  39. Bit rate                                 : 2 314 kb/s
  40. Channel(s)                               : 6 channels
  41. Channel layout                           : C L R Ls Rs LFE
  42. Sampling rate                            : 48.0 kHz
  43. Frame rate                               : 93.750 FPS (512 SPF)
  44. Bit depth                                : 24 bits
  45. Compression mode                         : Lossless
  46. Stream size                              : 1.43 GiB (6%)
  47. Title                                    : DTS-HD MA 5.1
  48. Language                                 : English
  49. Default                                  : Yes
  50. Forced                                   : No
  51. Original source medium                   : Blu-ray
  52. Audio #2
  53. ID                                       : 3
  54. ID in the original source medium         : 4353 (0x1101)
  55. Format                                   : DTS XLL
  56. Format/Info                              : Digital Theater Systems
  57. Commercial name                          : DTS-HD Master Audio
  58. Codec ID                                 : A_DTS
  59. Duration                                 : 1 h 28 min
  60. Bit rate mode                            : Variable
  61. Bit rate                                 : 1 631 kb/s
  62. Channel(s)                               : 2 channels
  63. Channel layout                           : L R
  64. Sampling rate                            : 48.0 kHz
  65. Frame rate                               : 93.750 FPS (512 SPF)
  66. Bit depth                                : 24 bits
  67. Compression mode                         : Lossless
  68. Stream size                              : 1.01 GiB (5%)
  69. Title                                    : DTS-HD MA 2.0
  70. Language                                 : English
  71. Default                                  : No
  72. Forced                                   : No
  73. Original source medium                   : Blu-ray
  74. Text #1
  75. ID                                       : 4
  76. Format                                   : UTF-8
  77. Codec ID                                 : S_TEXT/UTF8
  78. Codec ID/Info                            : UTF-8 Plain Text
  79. Duration                                 : 1 h 23 min
  80. Bit rate                                 : 76 b/s
  81. Count of elements                        : 1520
  82. Stream size                              : 46.7 KiB (0%)
  83. Title                                    : SRT
  84. Language                                 : English
  85. Default                                  : Yes
  86. Forced                                   : No
  87. Text #2
  88. ID                                       : 5
  89. ID in the original source medium         : 4608 (0x1200)
  90. Format                                   : PGS
  91. Muxing mode                              : zlib
  92. Codec ID                                 : S_HDMV/PGS
  93. Codec ID/Info                            : Picture based subtitle format used on BDs/HD-DVDs
  94. Duration                                 : 1 h 24 min
  95. Bit rate                                 : 47.7 kb/s
  96. Count of elements                        : 2229
  97. Stream size                              : 28.7 MiB (0%)
  98. Language                                 : English
  99. Default                                  : No
  100. Forced                                   : No
  101. Original source medium                   : Blu-ray
  102. Menu
  103. 00:00:00.000                             : Chapter 01
  104. 00:06:54.247                             : Chapter 02
  105. 00:14:31.370                             : Chapter 03
  106. 00:21:10.310                             : Chapter 04
  107. 00:28:26.079                             : Chapter 05
  108. 00:36:20.011                             : Chapter 06
  109. 00:45:28.308                             : Chapter 07
  110. 00:52:30.897                             : Chapter 08
  111. 00:56:43.358                             : Chapter 09
  112. 01:04:10.513                             : Chapter 10
  113. 01:10:02.156                             : Chapter 11
  114. 01:17:45.452                             : Chapter 12
复制代码







                                       
                                       

                                       
                                       
                                       




回复

使用道具 举报

懒得打字嘛,点击右侧快捷回复 【右侧内容,后台自定义】
您需要登录后才可以回帖 登录 | 立即加入

本版积分规则

Archiver|小黑屋| 蓝光电影网 |网站地图

Copyright © 2021 Comsenz Inc. Powered by 蓝光电影网

蓝光电影网

本站内容由用户自主分享和转载自互联网,转载目的在于传递更多信息,并不代表本网赞同其观点和对其真实性负责。

如有侵权、违反国家法律政策行为,请联系我们,我们会第一时间及时清除和处理!

举报反馈邮箱:[email protected]

快速回复 返回顶部 返回列表