找回密码

蓝光电影网

查看: 19|回复: 0

[动作] 吸血鬼猎人D/吸血鬼猎人D:血欲 Vampire.Hunter.D.Bloodlust.2000.1080p.BluRay.x264-WaLMaRT 5.47GB

[复制链接]
蓝光币
515
发表于 2019-8-8 18:07:36 | 显示全部楼层 |阅读模式
[img]https://img1.doubanio.com/view/photo/l_ratio_poster/public/p453851762.jpg[img]
◎译  名 吸血鬼猎人D / 吸血鬼猎人D:血欲
◎片  名 Vampire Hunter D: Bloodlust
◎年  代 2000
◎产  地 日本 / 美国
◎类  别 行动 / 动画 / 悬疑 / 可骇 / 奇异 / 冒险
◎语  言 日语 / 英语
◎上映日期 2000-07(加拿大空想曲电影节) / 2000-10-31(香港) / 2001-04-17(日本) / 2001-09-28(美国)
◎IMDb评分  7.7/10 from 27009 users
◎IMDb链接  http://www.imdb.com/title/tt0216651
◎豆瓣评分 8.7/10 from 28584 users
◎豆瓣链接 https://movie.douban.com/subject/1306982/
◎片  长 103分钟
◎导  演 川尻善昭 Yoshiaki Kawajiri
◎编  剧 川尻善昭 Yoshiaki Kawajiri / 菊地秀行 Hideyuki Kikuchi
◎主  演 田中秀幸 Hideyuki Tanaka
       永井一郎 Ichir? Nagai
       山寺宏一 K?ichi Yamadera
       林原惠美 Megumi Hayashibara
       篠原惠美 Emi Shinohara
       屋良有作 Y?saku Yara
       大塚芳忠 H?ch? ?tsuka
       关俊彦 Toshihiko Seki
       大友龙三郎 Ry?zabur? ?tomo
       大塚周夫 Chikao ?tsuka
       青野武 Takeshi Aono
       前田美波里 Bibari Maeda
       铃鹿千春
       清川元梦 Motomu Kiyokawa
       辻谷耕史 K?ji Tsujitani
       西凛太郎 Rintarou Nishi
       泽海阳子 Y?ko Soumi
       藤原启治 Keiji Fujiwara
       矢岛晶子 Akiko Yajima
       石冢运升 Unsh? Ishizuka
       小山力也 Rikiya Koyama
       金井美香 Mika Kanai

◎标  签 吸血鬼 | 动画 | 日本 | 魔幻 | 奇异 | 恋爱 | 典范 | 戏院版
◎简  介  
  吸血鬼猎人D是吸血鬼王和人类女子生的后代,他身手灵敏,是响当当的吸血鬼猎人。此次,埃尔邦家属的千金夏洛特被吸血鬼掳了去,庄园主请来了D和吸血鬼猎人马克思兄妹前往救援。途中,D和马克思兄妹由于争取报答而相互较劲,弄得不欢而散。随后,D遭到了贵族三杰的攻击,生死关头D忽然病发,危在旦夕之际马克思兄妹中的蕾拉救了D,他们相互约定往后谁先死对方就要前往其墓前献花。
  厥后,他们查了然夏洛特并不是被吸血鬼掳走了,而是恋上了吸血鬼马埃尔,两人一路私奔,正前往吸血鬼伯爵夫人卡米拉的城堡搭乘卡米拉的飞船前往世外桃源“夜之都”起头他们的新生活。但是卡米拉只是将他们骗去,她的真正目标是吸干夏洛特的鲜血让自己新生。D实时赶到,和卡米拉展开了一场生死大战。
  1. Video
  2. ID                                       : 1
  3. Format                                   : AVC
  4. Format/Info                              : Advanced Video Codec
  5. Format profile                           : [email protected]
  6. Format settings, CABAC                   : Yes
  7. Format settings, ReFrames                : 4 frames
  8. Codec ID                                 : V_MPEG4/ISO/AVC
  9. Duration                                 : 1h 41mn
  10. Bit rate                                 : 6 184 Kbps
  11. Width                                    : 1 920 pixels
  12. Height                                   : 1 040 pixels
  13. Display aspect ratio                     : 1.85:1
  14. Frame rate mode                          : Constant
  15. Frame rate                               : 23.976 fps
  16. Color space                              : YUV
  17. Chroma subsampling                       : 4:2:0
  18. Bit depth                                : 8 bits
  19. Scan type                                : Progressive
  20. Bits/(Pixel*Frame)                       : 0.129
  21. Stream size                              : 4.28 GiB (78%)
  22. Writing library                          : x264 core 148 r2638 7599210
  23. Encoding settings                        : cabac=1 / ref=4 / deblock=1:-1:-1 / analyse=0x3:0x133 / me=umh / subme=7 / psy=1 / psy_rd=1.00:0.00 / mixed_ref=1 / me_range=16 / chroma_me=1 / trellis=1 / 8x8dct=1 / cqm=0 / deadzone=21,11 / fast_pskip=0 / chroma_qp_offset=-2 / threads=9 / lookahead_threads=1 / sliced_threads=0 / nr=0 / decimate=1 / interlaced=0 / bluray_compat=0 / constrained_intra=0 / bframes=3 / b_pyramid=2 / b_adapt=2 / b_bias=0 / direct=3 / weightb=1 / open_gop=0 / weightp=2 / keyint=240 / keyint_min=23 / scenecut=40 / intra_refresh=0 / rc_lookahead=50 / rc=2pass / mbtree=0 / bitrate=6184 / ratetol=1.0 / qcomp=0.60 / qpmin=10 / qpmax=51 / qpstep=4 / cplxblur=20.0 / qblur=0.5 / vbv_maxrate=62500 / vbv_bufsize=78125 / nal_hrd=none / filler=0 / ip_ratio=1.40 / pb_ratio=1.30 / aq=1:1.00
  24. Default                                  : Yes
  25. Forced                                   : No

  26. Audio
  27. ID                                       : 2
  28. Format                                   : DTS
  29. Format/Info                              : Digital Theater Systems
  30. Mode                                     : 16
  31. Format settings, Endianness              : Big
  32. Codec ID                                 : A_DTS
  33. Duration                                 : 1h 41mn
  34. Bit rate mode                            : Constant
  35. Bit rate                                 : 1 509 Kbps
  36. Channel(s)                               : 6 channels
  37. Channel positions                        : Front: L C R, Side: L R, LFE
  38. Sampling rate                            : 48.0 KHz
  39. Bit depth                                : 24 bits
  40. Compression mode                         : Lossy
  41. Stream size                              : 1.07 GiB (20%)
  42. Language                                 : English
  43. Default                                  : Yes
  44. Forced                                   : No

  45. Text
  46. ID                                       : 3
  47. Format                                   : UTF-8
  48. Codec ID                                 : S_TEXT/UTF8
  49. Codec ID/Info                            : UTF-8 Plain Text
  50. Language                                 : English
  51. Default                                  : Yes
  52. Forced                                   : No

  53. Menu
  54. 00:00:00.000                             : en:00:00:00.000
  55. 00:02:56.802                             : en:00:02:56.802
  56. 00:06:48.491                             : en:00:06:48.491
  57. 00:13:15.545                             : en:00:13:15.545
  58. 00:16:48.549                             : en:00:16:48.549
  59. 00:19:24.538                             : en:00:19:24.538
  60. 00:23:25.946                             : en:00:23:25.946
  61. 00:34:49.588                             : en:00:34:49.588
  62. 00:38:21.966                             : en:00:38:21.966
  63. 00:45:58.631                             : en:00:45:58.631
  64. 00:52:09.084                             : en:00:52:09.084
  65. 00:57:12.179                             : en:00:57:12.179
  66. 01:02:32.666                             : en:01:02:32.666
  67. 01:06:28.109                             : en:01:06:28.109
  68. 01:10:08.287                             : en:01:10:08.287
  69. 01:12:32.974                             : en:01:12:32.974
  70. 01:17:25.307                             : en:01:17:25.307
  71. 01:25:23.619                             : en:01:25:23.619
  72. 01:30:49.569                             : en:01:30:49.569
  73. 01:36:41.796                             : en:01:36:41.796
复制代码




                                       
                                       

                                       
                                       
                                       




回复

使用道具 举报

懒得打字嘛,点击右侧快捷回复 【右侧内容,后台自定义】
您需要登录后才可以回帖 登录 | 立即加入

本版积分规则

Archiver|小黑屋| 蓝光电影网 |网站地图

Copyright © 2021 Comsenz Inc. Powered by 蓝光电影网

蓝光电影网

本站内容由用户自主分享和转载自互联网,转载目的在于传递更多信息,并不代表本网赞同其观点和对其真实性负责。

如有侵权、违反国家法律政策行为,请联系我们,我们会第一时间及时清除和处理!

举报反馈邮箱:k[email protected]

快速回复 返回顶部 返回列表