找回密码

蓝光电影网

查看: 26|回复: 0

[喜剧] 优步危机/斯图伯 Stuber.2019.1080p.BluRay.REMUX.AVC.DTS-HD.MA.TrueHD.7.1.Atmos-FGT 26.81GB

[复制链接]
蓝光币
519
发表于 2019-10-10 06:16:21 | 显示全部楼层 |阅读模式


◎译  名 优步危机 / 斯图伯 / 狂玩嘢时速(港) / 玩命优步(台)
◎片  名 Stuber
◎年  代 2019
◎产  地 美国
◎类  别 笑剧 / 行动
◎语  言 英语
◎上映日期 2019-07-12(美国)
◎IMDb评分  6.2/10 from 9167 users
◎IMDb链接  http://www.imdb.com/title/tt7734218
◎豆瓣评分 6.5/10 from 246 users
◎豆瓣链接 https://movie.douban.com/subject/27603782/
◎片  长 105分钟
◎导  演 迈克尔·道斯 Michael Dowse
◎编  剧 特里珀·克兰西 Tripper Clancy
◎主  演 戴夫·巴蒂斯塔 Dave Bautista
       库梅尔·南贾尼 Kumail Nanjiani
       伊科·乌艾斯 Iko Uwais
       贝蒂·吉尔平 Betty Gilpin
       米拉·索维诺 Mira Sorvino
       娜塔丽·莫瑞丝 Natalie Morales
       约书亚·米克尔 Joshua Mikel
       阿明·约瑟夫 Amin Joseph
       斯科特·劳伦斯 Scott Lawrence
       克里斯汀·霍恩 Christine Horn
       汉斯·马雷罗 Hans Marrero
       雷内?莫兰 Rene Moran

◎标  签 笑剧 | 行动 | 美国 | 2019 | 犯罪 | 搞笑 | 二十世纪福克斯 | 家庭
◎简  介  
  南贾尼饰演一位性情温顺的Uber司机,某天载的乘客是一位头发花白的差人,他正在追捕一位残暴的杀手。司机发现自己面临艰难考验,他必必要连结冷静,保证办事质量以获得五星好评。
  1. Video
  2. ID                                       : 1
  3. Format                                   : AVC
  4. Format/Info                              : Advanced Video Codec
  5. Format profile                           : [email protected]
  6. Format settings                          : CABAC / 2 Ref Frames
  7. Format settings, CABAC                   : Yes
  8. Format settings, Reference frames        : 2 frames
  9. Codec ID                                 : V_MPEG4/ISO/AVC
  10. Duration                                 : 1 h 33 min
  11. Bit rate mode                            : Variable
  12. Bit rate                                 : 30.3 Mb/s
  13. Width                                    : 1 920 pixels
  14. Height                                   : 1 080 pixels
  15. Display aspect ratio                     : 16:9
  16. Frame rate mode                          : Constant
  17. Frame rate                               : 23.976 (24000/1001) FPS
  18. Color space                              : YUV
  19. Chroma subsampling                       : 4:2:0
  20. Bit depth                                : 8 bits
  21. Scan type                                : Progressive
  22. Bits/(Pixel*Frame)                       : 0.610
  23. Stream size                              : 19.8 GiB (74%)
  24. Title                                    : Stuber.2019.1080p.BluRay.REMUX.AVC.DTS-HD.MA.TrueHD.7.1.Atmos-FGT
  25. Language                                 : English
  26. Default                                  : No
  27. Forced                                   : No
  28. Audio #1
  29. ID                                       : 2
  30. Format                                   : MLP FBA 16-ch
  31. Format/Info                              : Meridian Lossless Packing FBA with 16-channel presentation
  32. Commercial name                          : Dolby TrueHD with Dolby Atmos
  33. Codec ID                                 : A_TRUEHD
  34. Duration                                 : 1 h 33 min
  35. Bit rate mode                            : Variable
  36. Bit rate                                 : 3 937 kb/s
  37. Maximum bit rate                         : 6 696 kb/s
  38. Channel(s)                               : 8 channels
  39. Channel layout                           : L R C LFE Ls Rs Lb Rb
  40. Sampling rate                            : 48.0 kHz
  41. Frame rate                               : 1 200.000 FPS (40 SPF)
  42. Compression mode                         : Lossless
  43. Stream size                              : 2.57 GiB (10%)
  44. Title                                    : Stuber.2019.1080p.BluRay.REMUX.AVC.DTS-HD.MA.TrueHD.7.1.Atmos-FGT
  45. Language                                 : English
  46. Default                                  : Yes
  47. Forced                                   : No
  48. Number of dynamic objects                : 13
  49. Bed channel count                        : 1 channel
  50. Bed channel configuration                : LFE
  51. Audio #2
  52. ID                                       : 3
  53. Format                                   : DTS XLL
  54. Format/Info                              : Digital Theater Systems
  55. Commercial name                          : DTS-HD Master Audio
  56. Codec ID                                 : A_DTS
  57. Duration                                 : 1 h 33 min
  58. Bit rate mode                            : Variable
  59. Bit rate                                 : 4 440 kb/s
  60. Channel(s)                               : 8 channels
  61. Channel layout                           : C L R LFE Lb Rb Lss Rss
  62. Sampling rate                            : 48.0 kHz
  63. Frame rate                               : 93.750 FPS (512 SPF)
  64. Bit depth                                : 24 bits
  65. Compression mode                         : Lossless
  66. Stream size                              : 2.90 GiB (11%)
  67. Title                                    : Stuber.2019.1080p.BluRay.REMUX.AVC.DTS-HD.MA.TrueHD.7.1.Atmos-FGT
  68. Language                                 : English
  69. Default                                  : No
  70. Forced                                   : No
  71. Audio #3
  72. ID                                       : 4
  73. Format                                   : AC-3
  74. Format/Info                              : Audio Coding 3
  75. Commercial name                          : Dolby Digital
  76. Codec ID                                 : A_AC3
  77. Duration                                 : 1 h 33 min
  78. Bit rate mode                            : Constant
  79. Bit rate                                 : 640 kb/s
  80. Channel(s)                               : 6 channels
  81. Channel layout                           : L R C LFE Ls Rs
  82. Sampling rate                            : 48.0 kHz
  83. Frame rate                               : 31.250 FPS (1536 SPF)
  84. Bit depth                                : 16 bits
  85. Compression mode                         : Lossy
  86. Stream size                              : 428 MiB (2%)
  87. Title                                    : Stuber.2019.1080p.BluRay.REMUX.AVC.DTS-HD.MA.TrueHD.7.1.Atmos-FGT
  88. Language                                 : English
  89. Service kind                             : Complete Main
  90. Default                                  : No
  91. Forced                                   : No
  92. Audio #4
  93. ID                                       : 5
  94. Format                                   : AC-3
  95. Format/Info                              : Audio Coding 3
  96. Commercial name                          : Dolby Digital
  97. Codec ID                                 : A_AC3
  98. Duration                                 : 1 h 33 min
  99. Bit rate mode                            : Constant
  100. Bit rate                                 : 448 kb/s
  101. Channel(s)                               : 6 channels
  102. Channel layout                           : L R C LFE Ls Rs
  103. Sampling rate                            : 48.0 kHz
  104. Frame rate                               : 31.250 FPS (1536 SPF)
  105. Bit depth                                : 16 bits
  106. Compression mode                         : Lossy
  107. Stream size                              : 299 MiB (1%)
  108. Title                                    : Stuber.2019.1080p.BluRay.REMUX.AVC.DTS-HD.MA.TrueHD.7.1.Atmos-FGT
  109. Language                                 : English
  110. Service kind                             : Complete Main
  111. Default                                  : No
  112. Forced                                   : No
  113. Audio #5
  114. ID                                       : 6
  115. Format                                   : AC-3
  116. Format/Info                              : Audio Coding 3
  117. Commercial name                          : Dolby Digital
  118. Codec ID                                 : A_AC3
  119. Duration                                 : 1 h 33 min
  120. Bit rate mode                            : Constant
  121. Bit rate                                 : 448 kb/s
  122. Channel(s)                               : 6 channels
  123. Channel layout                           : L R C LFE Ls Rs
  124. Sampling rate                            : 48.0 kHz
  125. Frame rate                               : 31.250 FPS (1536 SPF)
  126. Bit depth                                : 16 bits
  127. Compression mode                         : Lossy
  128. Stream size                              : 299 MiB (1%)
  129. Title                                    : Stuber.2019.1080p.BluRay.REMUX.AVC.DTS-HD.MA.TrueHD.7.1.Atmos-FGT
  130. Language                                 : Spanish
  131. Service kind                             : Complete Main
  132. Default                                  : No
  133. Forced                                   : No
  134. Audio #6
  135. ID                                       : 7
  136. Format                                   : AC-3
  137. Format/Info                              : Audio Coding 3
  138. Commercial name                          : Dolby Digital
  139. Codec ID                                 : A_AC3
  140. Duration                                 : 1 h 33 min
  141. Bit rate mode                            : Constant
  142. Bit rate                                 : 448 kb/s
  143. Channel(s)                               : 6 channels
  144. Channel layout                           : L R C LFE Ls Rs
  145. Sampling rate                            : 48.0 kHz
  146. Frame rate                               : 31.250 FPS (1536 SPF)
  147. Bit depth                                : 16 bits
  148. Compression mode                         : Lossy
  149. Stream size                              : 299 MiB (1%)
  150. Title                                    : Stuber.2019.1080p.BluRay.REMUX.AVC.DTS-HD.MA.TrueHD.7.1.Atmos-FGT
  151. Language                                 : French
  152. Service kind                             : Complete Main
  153. Default                                  : No
  154. Forced                                   : No
  155. Audio #7
  156. ID                                       : 8
  157. Format                                   : AC-3
  158. Format/Info                              : Audio Coding 3
  159. Commercial name                          : Dolby Digital
  160. Codec ID                                 : A_AC3
  161. Duration                                 : 1 h 33 min
  162. Bit rate mode                            : Constant
  163. Bit rate                                 : 224 kb/s
  164. Channel(s)                               : 2 channels
  165. Channel layout                           : L R
  166. Sampling rate                            : 48.0 kHz
  167. Frame rate                               : 31.250 FPS (1536 SPF)
  168. Bit depth                                : 16 bits
  169. Compression mode                         : Lossy
  170. Stream size                              : 150 MiB (1%)
  171. Title                                    : Stuber.2019.1080p.BluRay.REMUX.AVC.DTS-HD.MA.TrueHD.7.1.Atmos-FGT
  172. Language                                 : English
  173. Service kind                             : Complete Main
  174. Default                                  : No
  175. Forced                                   : No
  176. Text #1
  177. ID                                       : 9
  178. Format                                   : UTF-8
  179. Codec ID                                 : S_TEXT/UTF8
  180. Codec ID/Info                            : UTF-8 Plain Text
  181. Duration                                 : 1 h 26 min
  182. Bit rate                                 : 84 b/s
  183. Count of elements                        : 1967
  184. Stream size                              : 54.0 KiB (0%)
  185. Title                                    : English-SRT
  186. Language                                 : English
  187. Default                                  : Yes
  188. Forced                                   : No
  189. Text #2
  190. ID                                       : 10
  191. Format                                   : PGS
  192. Muxing mode                              : zlib
  193. Codec ID                                 : S_HDMV/PGS
  194. Codec ID/Info                            : Picture based subtitle format used on BDs/HD-DVDs
  195. Duration                                 : 1 h 27 min
  196. Bit rate                                 : 62.4 kb/s
  197. Count of elements                        : 4306
  198. Stream size                              : 38.9 MiB (0%)
  199. Title                                    : English-PGS
  200. Language                                 : English
  201. Default                                  : No
  202. Forced                                   : No
  203. Text #3
  204. ID                                       : 11
  205. Format                                   : PGS
  206. Muxing mode                              : zlib
  207. Codec ID                                 : S_HDMV/PGS
  208. Codec ID/Info                            : Picture based subtitle format used on BDs/HD-DVDs
  209. Duration                                 : 1 h 32 min
  210. Bit rate                                 : 47.6 kb/s
  211. Count of elements                        : 3592
  212. Stream size                              : 31.5 MiB (0%)
  213. Title                                    : Spanish-PGS
  214. Language                                 : Spanish
  215. Default                                  : No
  216. Forced                                   : No
  217. Text #4
  218. ID                                       : 12
  219. Format                                   : PGS
  220. Muxing mode                              : zlib
  221. Codec ID                                 : S_HDMV/PGS
  222. Codec ID/Info                            : Picture based subtitle format used on BDs/HD-DVDs
  223. Duration                                 : 1 h 27 min
  224. Bit rate                                 : 611 b/s
  225. Count of elements                        : 34
  226. Stream size                              : 391 KiB (0%)
  227. Title                                    : Spanish-FORCED-PGS
  228. Language                                 : Spanish
  229. Default                                  : No
  230. Forced                                   : No
  231. Text #5
  232. ID                                       : 13
  233. Format                                   : PGS
  234. Muxing mode                              : zlib
  235. Codec ID                                 : S_HDMV/PGS
  236. Codec ID/Info                            : Picture based subtitle format used on BDs/HD-DVDs
  237. Duration                                 : 1 h 32 min
  238. Bit rate                                 : 46.0 kb/s
  239. Count of elements                        : 3652
  240. Stream size                              : 30.5 MiB (0%)
  241. Title                                    : French-PGS
  242. Language                                 : French
  243. Default                                  : No
  244. Forced                                   : No
  245. Text #6
  246. ID                                       : 14
  247. Format                                   : PGS
  248. Muxing mode                              : zlib
  249. Codec ID                                 : S_HDMV/PGS
  250. Codec ID/Info                            : Picture based subtitle format used on BDs/HD-DVDs
  251. Duration                                 : 1 h 27 min
  252. Bit rate                                 : 990 b/s
  253. Count of elements                        : 56
  254. Stream size                              : 634 KiB (0%)
  255. Title                                    : French-FORCED-PGS
  256. Language                                 : French
  257. Default                                  : No
  258. Forced                                   : No
  259. Text #7
  260. ID                                       : 15
  261. Format                                   : PGS
  262. Muxing mode                              : zlib
  263. Codec ID                                 : S_HDMV/PGS
  264. Codec ID/Info                            : Picture based subtitle format used on BDs/HD-DVDs
  265. Duration                                 : 1 h 28 min
  266. Bit rate                                 : 90.7 kb/s
  267. Count of elements                        : 4246
  268. Stream size                              : 57.4 MiB (0%)
  269. Title                                    : English-COMMENTARY-PGS
  270. Language                                 : English
  271. Default                                  : No
  272. Forced                                   : No
  273. Text #8
  274. ID                                       : 16
  275. Format                                   : PGS
  276. Muxing mode                              : zlib
  277. Codec ID                                 : S_HDMV/PGS
  278. Codec ID/Info                            : Picture based subtitle format used on BDs/HD-DVDs
  279. Duration                                 : 1 h 33 min
  280. Bit rate                                 : 71.0 kb/s
  281. Count of elements                        : 3970
  282. Stream size                              : 47.3 MiB (0%)
  283. Title                                    : Spanish-COMMENTARY-PGS
  284. Language                                 : Spanish
  285. Default                                  : No
  286. Forced                                   : No
  287. Text #9
  288. ID                                       : 17
  289. Format                                   : PGS
  290. Muxing mode                              : zlib
  291. Codec ID                                 : S_HDMV/PGS
  292. Codec ID/Info                            : Picture based subtitle format used on BDs/HD-DVDs
  293. Duration                                 : 1 h 33 min
  294. Bit rate                                 : 66.6 kb/s
  295. Count of elements                        : 3974
  296. Stream size                              : 44.4 MiB (0%)
  297. Title                                    : French-COMMENTARY-PGS
  298. Language                                 : French
  299. Default                                  : No
  300. Forced                                   : No
  301. Menu
  302. 00:00:00.000                             : en:Chapter 01
  303. 00:05:52.518                             : en:Chapter 02
  304. 00:09:57.221                             : en:Chapter 03
  305. 00:14:14.728                             : en:Chapter 04
  306. 00:17:30.424                             : en:Chapter 05
  307. 00:19:46.310                             : en:Chapter 06
  308. 00:22:39.941                             : en:Chapter 07
  309. 00:27:33.234                             : en:Chapter 08
  310. 00:31:30.597                             : en:Chapter 09
  311. 00:33:18.871                             : en:Chapter 10
  312. 00:35:39.887                             : en:Chapter 11
  313. 00:40:13.035                             : en:Chapter 12
  314. 00:45:05.202                             : en:Chapter 13
  315. 00:49:10.113                             : en:Chapter 14
  316. 00:52:36.903                             : en:Chapter 15
  317. 00:56:46.027                             : en:Chapter 16
  318. 01:01:54.627                             : en:Chapter 17
  319. 01:05:43.856                             : en:Chapter 18
  320. 01:08:36.946                             : en:Chapter 19
  321. 01:13:31.031                             : en:Chapter 20
  322. 01:16:44.308                             : en:Chapter 21
  323. 01:19:07.534                             : en:Chapter 22
  324. 01:23:54.654                             : en:Chapter 23
  325. 01:27:49.597                             : en:Chapter 24
复制代码






                                       
                                       

                                       
                                       
                                       




回复

使用道具 举报

懒得打字嘛,点击右侧快捷回复 【右侧内容,后台自定义】
您需要登录后才可以回帖 登录 | 立即加入

本版积分规则

Archiver|小黑屋| 蓝光电影网 |网站地图

Copyright © 2021 Comsenz Inc. Powered by 蓝光电影网

蓝光电影网

本站内容由用户自主分享和转载自互联网,转载目的在于传递更多信息,并不代表本网赞同其观点和对其真实性负责。

如有侵权、违反国家法律政策行为,请联系我们,我们会第一时间及时清除和处理!

举报反馈邮箱:[email protected]

快速回复 返回顶部 返回列表