找回密码

蓝光电影网

查看: 262|回复: 1

[动作] 劫持游侠 Rogue.Hostage.2021.1080p.BluRay.REMUX.AVC.DTS-HD.MA.5.1-FGT 21.06GB

[复制链接]
蓝光币
515
发表于 2021-8-20 20:57:36 | 显示全部楼层 |阅读模式


◎译  名 劫持游侠/Red 48
◎片  名 Rogue Hostage
◎年  代 2021
◎产  地 美国
◎类  别 行动 / 惊悚 / 犯罪
◎语  言 英语
◎上映日期 2021-06-11(美国)
◎豆瓣评分 3.7/10 from 107 users
◎豆瓣链接 https://movie.douban.com/subject/35203378/
◎导  演 强·基耶斯 Jon Keeyes
◎主  演 霍莉·泰勒 Holly Taylor
       约翰·马尔科维奇 John Malkovich
       迈克尔·加·怀特 Michael Jai White
       泰瑞斯·吉布森 Tyrese Gibson
       劳伦·维勒斯 Lauren Vélez
       克里斯托弗·巴库斯 Christopher Backus
       约翰·D·希克曼 John D. Hickman
       莱斯莉·斯特拉顿 Leslie Stratton
       亚历山大·维舍尔鲍默 Aleksander Vayshelboym
       艾德里安·阿尔瓦拉多 Adrian Alvarado
       布鲁克·卡雷尔 Brooke Carrell
       Charlie Sara Charlie Sara
◎标  签 犯罪 | 行动 | 美国 | 2021 | 剧情 | 约翰·马尔科维奇 | 迈克尔·加·怀特 | 美国电影
◎简  介


  Tyrese Gibson, John Malkovich and Michael Jai White will star in Red 48, an indie action thriller from Yale Productions.
  
  Jon Keeyes (The Harrowing) is directing the feature, which has an original script by Mickey Solis and is wrapping production this week in and around the Tri-State area.
  
  Gibson will play Kyle Snowden, a troubled former Marine turned child protective service officer who must save an immigrant child from a dangerous criminal who has trapped them and other hostages inside a convenience store. Adding more power to the keg: The store is owned by the Snowden's stepfather, Sam Safty, being played by Malkovich. White plays Sparks, the Safty's no-nonsense bodyguard and confidant.
  
  Gibson is also producing the project along with Keeyes. Jordan Yale Levine and Jordan Beckerman are producing via their Yale Productions banner.
  1. Video
  2. ID                                       : 1
  3. ID in the original source medium         : 4113 (0x1011)
  4. Format                                   : AVC
  5. Format/Info                              : Advanced Video Codec
  6. Format profile                           : [email protected]
  7. Format settings                          : CABAC / 4 Ref Frames
  8. Format settings, CABAC                   : Yes
  9. Format settings, Reference frames        : 4 frames
  10. Format settings, GOP                     : M=3, N=12
  11. Codec ID                                 : V_MPEG4/ISO/AVC
  12. Duration                                 : 1 h 33 min
  13. Bit rate mode                            : Variable
  14. Bit rate                                 : 26.8 Mb/s
  15. Maximum bit rate                         : 38.0 Mb/s
  16. Width                                    : 1 920 pixels
  17. Height                                   : 1 080 pixels
  18. Display aspect ratio                     : 16:9
  19. Frame rate mode                          : Constant
  20. Frame rate                               : 23.976 (24000/1001/189150) FPS
  21. Color space                              : YUV
  22. Chroma subsampling                       : 4:2:0
  23. Bit depth                                : 8 bits
  24. Scan type                                : Progressive
  25. Bits/(Pixel*Frame)                       : 0.539
  26. Stream size                              : 17.5 GiB (83%)
  27. Language                                 : English
  28. Default                                  : No
  29. Forced                                   : No
  30. Original source medium                   : Blu-ray
  31. Audio #1
  32. ID                                       : 2
  33. ID in the original source medium         : 4352 (0x1100)
  34. Format                                   : DTS XLL
  35. Format/Info                              : Digital Theater Systems
  36. Commercial name                          : DTS-HD Master Audio
  37. Codec ID                                 : A_DTS
  38. Duration                                 : 1 h 33 min
  39. Bit rate mode                            : Variable
  40. Bit rate                                 : 3 367 kb/s
  41. Channel(s)                               : 6 channels
  42. Channel layout                           : C L R Ls Rs LFE
  43. Sampling rate                            : 48.0 kHz
  44. Frame rate                               : 93.750 FPS (512 SPF)
  45. Bit depth                                : 24 bits
  46. Compression mode                         : Lossless
  47. Stream size                              : 2.20 GiB (10%)
  48. Title                                    : DTS-HD MA 5.1
  49. Language                                 : English
  50. Default                                  : Yes
  51. Forced                                   : No
  52. Original source medium                   : Blu-ray
  53. Audio #2
  54. ID                                       : 3
  55. ID in the original source medium         : 4353 (0x1101)
  56. Format                                   : DTS XLL
  57. Format/Info                              : Digital Theater Systems
  58. Commercial name                          : DTS-HD Master Audio
  59. Codec ID                                 : A_DTS
  60. Duration                                 : 1 h 33 min
  61. Bit rate mode                            : Variable
  62. Bit rate                                 : 1 991 kb/s
  63. Channel(s)                               : 2 channels
  64. Channel layout                           : L R
  65. Sampling rate                            : 48.0 kHz
  66. Frame rate                               : 93.750 FPS (512 SPF)
  67. Bit depth                                : 24 bits
  68. Compression mode                         : Lossless
  69. Stream size                              : 1.30 GiB (6%)
  70. Title                                    : DTS-HD MA 2.0
  71. Language                                 : English
  72. Default                                  : No
  73. Forced                                   : No
  74. Original source medium                   : Blu-ray
  75. Text #1
  76. ID                                       : 4
  77. Format                                   : UTF-8
  78. Codec ID                                 : S_TEXT/UTF8
  79. Codec ID/Info                            : UTF-8 Plain Text
  80. Duration                                 : 1 h 25 min
  81. Bit rate                                 : 46 b/s
  82. Count of elements                        : 1048
  83. Stream size                              : 29.0 KiB (0%)
  84. Title                                    : SRT
  85. Language                                 : English
  86. Default                                  : Yes
  87. Forced                                   : No
  88. Text #2
  89. ID                                       : 5
  90. ID in the original source medium         : 4608 (0x1200)
  91. Format                                   : PGS
  92. Muxing mode                              : zlib
  93. Codec ID                                 : S_HDMV/PGS
  94. Codec ID/Info                            : Picture based subtitle format used on BDs/HD-DVDs
  95. Duration                                 : 1 h 30 min
  96. Bit rate                                 : 31.1 kb/s
  97. Count of elements                        : 2642
  98. Stream size                              : 20.2 MiB (0%)
  99. Language                                 : English
  100. Default                                  : No
  101. Forced                                   : No
  102. Original source medium                   : Blu-ray
  103. Menu
  104. 00:00:00.000                             : Chapter 01
  105. 00:09:13.094                             : Chapter 02
  106. 00:17:58.160                             : Chapter 03
  107. 00:27:15.342                             : Chapter 04
  108. 00:37:20.238                             : Chapter 05
  109. 00:45:42.740                             : Chapter 06
  110. 00:56:00.774                             : Chapter 07
  111. 01:06:48.796                             : Chapter 08
  112. 01:16:28.250                             : Chapter 09
  113. 01:24:45.038                             : Chapter 10
  114. 01:33:43.284                             : Chapter 11
复制代码







                                       
                                       

                                       
                                       
                                       




回复

使用道具 举报

蓝光币
3
发表于 2021-9-26 00:27:21 | 显示全部楼层
貌似评分不高啊
回复 支持 反对

使用道具 举报

懒得打字嘛,点击右侧快捷回复 【右侧内容,后台自定义】
您需要登录后才可以回帖 登录 | 立即加入

本版积分规则

Archiver|小黑屋| 蓝光电影网 |网站地图

Copyright © 2021 Comsenz Inc. Powered by 蓝光电影网

蓝光电影网

本站内容由用户自主分享和转载自互联网,转载目的在于传递更多信息,并不代表本网赞同其观点和对其真实性负责。

如有侵权、违反国家法律政策行为,请联系我们,我们会第一时间及时清除和处理!

举报反馈邮箱:[email protected]

快速回复 返回顶部 返回列表