找回密码

蓝光电影网

查看: 14|回复: 0

[动作] 晴空战士 Sky.Blue.2003.1080p.BluRay.x264-SSF 4.37GB

[复制链接]
蓝光币
511
发表于 2019-8-8 17:57:44 | 显示全部楼层 |阅读模式
[img]https://img1.doubanio.com/view/photo/l_ratio_poster/public/p538621672.jpg[img]
◎译  名 晴空战士 / Sky Blue / Wonderful Days / 为她翻开天空
◎片  名 ??? ???
◎年  代 2003
◎产  地 韩国 / 美国
◎类  别 行动 / 科幻 / 动画 / 奇异
◎语  言 韩语 / 英语
◎上映日期 2003-07-17(韩国)
◎IMDb评分  6.8/10 from 8773 users
◎IMDb链接  http://www.imdb.com/title/tt0353014
◎豆瓣评分 6.7/10 from 1529 users
◎豆瓣链接 https://movie.douban.com/subject/1305708/
◎片  长 87分钟
◎导  演 Moon-saeng Kim
◎编  剧 Jun-Young Park / Moon-saeng Kim / Yong-jun Park
◎主  演 Marc Worden
       Cathy Cavadini

◎标  签 动画 | 韩国 | 科幻 | 韩国动画 | 晴空战士 | 韩国电影 | 2003 | 动漫
◎简  介  
  大地在净化和情况灾难的两重冲击下,已经处在解体的边沿,为了保存,人们缔造了一个与世隔断的都会,叫做ECOBAN(这个名字由ecology和ban合并起来,意义是“扑灭生态”),而这个都会完全靠大地的净化物苟延残喘。
    可是,只要少少的经过挑选的人材可以进入这个隔断的都会,这些人成为城市中的特权阶级,至于更多的其他人,则无助地被抛弃,暴尸于无尽的荒原中。
    ECOBAN的能量之源就是净化物,生活在ECOBAN的人衣食不缺,而在另一个叫MARR的地方生活的难民却食不果腹。虽然如此,ECOBAN的人还想消灭MARR的居民来获得更多的净化物。
    过了一段日子,忽然有报道说这片地盘的净化水平允鄙人降,因此有很多人起头希望全部大地又能规复活机。
    抵触发生了,由于有一些政府官员决议继续净化地盘,这样的话他们就能连结住在都会里面的各种特权。
    这时,有一个入侵者偷偷进入了ECOBAN,而且疯狂地作案,当地的差人完全莫衷一是。JAY是警方的头子之一,她疲于奔命地追踪着入侵者,却发现这小我是自己的初爱情人。在工作义务和后代私情之间,JAY到底应当怎样取舍?同时,平安部分的领袖人物SIMON也深深爱着JAY,当他也发现了SHUA的存在时,又会发生什么?
    那是生活在情况净化的黑云之下的一切人的希望。
    那也是被各种压力逼得喘不外气来的人们的希望。
    那,也是我们的豪杰给他深爱的人的许诺。
  1. Video
  2. ID                                       : 1
  3. Format                                   : AVC
  4. Format/Info                              : Advanced Video Codec
  5. Format profile                           : [email protected]
  6. Format settings, CABAC                   : Yes
  7. Format settings, ReFrames                : 8 frames
  8. Codec ID                                 : V_MPEG4/ISO/AVC
  9. Duration                                 : 1h 25mn
  10. Bit rate                                 : 5 771 Kbps
  11. Width                                    : 1 920 pixels
  12. Height                                   : 1 080 pixels
  13. Display aspect ratio                     : 16:9
  14. Frame rate mode                          : Constant
  15. Frame rate                               : 23.976 (24000/1001) fps
  16. Color space                              : YUV
  17. Chroma subsampling                       : 4:2:0
  18. Bit depth                                : 8 bits
  19. Scan type                                : Progressive
  20. Bits/(Pixel*Frame)                       : 0.116
  21. Stream size                              : 3.37 GiB (77%)
  22. Writing library                          : x264 core 104 r1688 0b36c6d
  23. Encoding settings                        : cabac=1 / ref=8 / deblock=1:1:1 / analyse=0x3:0x133 / me=umh / subme=7 / psy=1 / psy_rd=0.40:0.00 / mixed_ref=1 / me_range=16 / chroma_me=1 / trellis=1 / 8x8dct=1 / cqm=0 / deadzone=21,11 / fast_pskip=0 / chroma_qp_offset=-2 / threads=12 / sliced_threads=0 / nr=0 / decimate=1 / interlaced=0 / constrained_intra=0 / bframes=5 / b_pyramid=2 / b_adapt=1 / b_bias=0 / direct=1 / weightb=1 / open_gop=0 / weightp=2 / keyint=250 / keyint_min=23 / scenecut=40 / intra_refresh=0 / rc_lookahead=40 / rc=2pass / mbtree=1 / bitrate=5771 / ratetol=1.0 / qcomp=0.60 / qpmin=10 / qpmax=51 / qpstep=4 / cplxblur=20.0 / qblur=0.5 / ip_ratio=1.40 / aq=1:0.60
  24. Language                                 : English
  25. Default                                  : Yes
  26. Forced                                   : No
  27. Audio
  28. ID                                       : 2
  29. Format                                   : DTS
  30. Format/Info                              : Digital Theater Systems
  31. Mode                                     : 16
  32. Format settings, Endianness              : Big
  33. Muxing mode                              : Header stripping
  34. Codec ID                                 : A_DTS
  35. Duration                                 : 1h 25mn
  36. Bit rate mode                            : Constant
  37. Bit rate                                 : 1 509 Kbps
  38. Channel(s)                               : 6 channels
  39. Channel positions                        : Front: L C R, Side: L R, LFE
  40. Sampling rate                            : 48.0 KHz
  41. Frame rate                               : 93.750 fps (512 spf)
  42. Bit depth                                : 16 bits
  43. Compression mode                         : Lossy
  44. Stream size                              : 927 MiB (21%)
  45. Language                                 : English
  46. Default                                  : Yes
  47. Forced                                   : No
复制代码









                                       
                                       

                                       
                                       
                                       




回复

使用道具 举报

懒得打字嘛,点击右侧快捷回复 【右侧内容,后台自定义】
您需要登录后才可以回帖 登录 | 立即加入

本版积分规则

Archiver|小黑屋| 蓝光电影网 |网站地图

Copyright © 2021 Comsenz Inc. Powered by 蓝光电影网

蓝光电影网

本站内容由用户自主分享和转载自互联网,转载目的在于传递更多信息,并不代表本网赞同其观点和对其真实性负责。

如有侵权、违反国家法律政策行为,请联系我们,我们会第一时间及时清除和处理!

举报反馈邮箱:[email protected]

快速回复 返回顶部 返回列表