找回密码

蓝光电影网

查看: 13|回复: 0

[剧情] 情书 Love.Letter.1995.JAPANESE.1080p.BluRay.REMUX.AVC.DTS-HD.MA.2.0-FGT 21.52GB

[复制链接]
蓝光币
511
发表于 2019-8-29 18:17:10 | 显示全部楼层 |阅读模式


◎译  名 情书 / Letters of Love / When I Close My Eyes
◎片  名 Love Letter
◎年  代 1995
◎产  地 日本
◎类  别 剧情 / 恋爱
◎语  言 日语
◎上映日期 1995-03-25(日本) / 1999-03(中国大陆)
◎IMDb评分  8.0/10 from 6260 users
◎IMDb链接  http://www.imdb.com/title/tt0113703
◎豆瓣评分 8.9/10 from 548920 users
◎豆瓣链接 https://movie.douban.com/subject/1292220/
◎片  长 117分钟
◎导  演 岩井俊二 Shunji Iwai
◎编  剧 岩井俊二 Shunji Iwai
◎主  演 中山美穗 Miho Nakayama
       丰川悦司 Etsushi Toyokawa
       酒井美纪 Miki Sakai
       柏原崇 Takashi Kashiwabara
       范文雀 Bunjaku Han
       篠原胜之 Katsuyuki Shinohara
       铃木庆一 Keiichi Suzuki
       田口智朗 Tomorowo Taguchi
       加贺麻理子 Mariko Kaga
       光石研 Ken Mitsuishi
       铃木兰兰 Ranran Suzuki
       盐见三省 Sansei Shiomi
       中村久美 Kumi Nakamura
       梅田凡乃 Hirokazu  Umeda
       长田江身子  Emiko Osada
       小栗香织 Kaori Oguri
       神户浩 Hiroshi Kanbe
       酒井敏也 Toshiya Sakai
       山口诗史 Shifumi Yamaguchi
       山崎一 Hajime Yamazaki
       德井优 Yu Tokui
       武藤寿美 Sumi Mutoh

◎标  签 恋爱 | 日本 | 青春 | 典范 | 文艺 | 暗恋 | 温情 | 初恋
◎简  介  
  日本神户某个飘雪的冬季,渡边博子(中山美穗)在前未婚夫藤井树的三周年祭日上又一次悲痛到不能便宜。正由于没法抑制住对已逝情人的忖量,渡边博子在其中学同学录里发现“藤井树” 在小樽市念书时的地址时,依循着寄发了一封本以为是发往天堂的情书。
  不想未几渡边博子居然收到签名为“藤井树(中山美穗)”的复书,经过进一步领会,她知晓此藤井树是一个同她年数相仿的女孩,且还是男友藤井树(柏原崇)少年时代的同班同学。为了多领会一些昔日情人在中学时代的情况,渡边博子起头与女性藤井树手札来往。而藤井树在不竭的回忆中,渐渐发现少年时代与她同名同姓的阿谁藤井树曾对自己藏了一腔柔情。
◎获奖情况  
  第19届日本电影学院奖(1996)
  话题奖 最具话题演员奖 丰川悦司
  最好影片(提名)
  最好男配角(提名) 丰川悦司
  最好配乐(提名) 丽美
  最好新人 柏原崇 / 酒井美纪
  第20届报知映画赏(1995)
  最好导演 岩井俊二
  最好女配角 中山美穗
  最好男配角 丰川悦司
  1. Video
  2. ID                                       : 1
  3. Format                                   : AVC
  4. Format/Info                              : Advanced Video Codec
  5. Format profile                           : [email protected]
  6. Format settings                          : CABAC / 4 Ref Frames
  7. Format settings, CABAC                   : Yes
  8. Format settings, Reference frames        : 4 frames
  9. Codec ID                                 : V_MPEG4/ISO/AVC
  10. Duration                                 : 1 h 56 min
  11. Bit rate mode                            : Variable
  12. Bit rate                                 : 24.6 Mb/s
  13. Maximum bit rate                         : 35.0 Mb/s
  14. Width                                    : 1 920 pixels
  15. Height                                   : 1 080 pixels
  16. Display aspect ratio                     : 16:9
  17. Frame rate mode                          : Constant
  18. Frame rate                               : 23.976 (24000/1001) FPS
  19. Standard                                 : NTSC
  20. Color space                              : YUV
  21. Chroma subsampling                       : 4:2:0
  22. Bit depth                                : 8 bits
  23. Scan type                                : Progressive
  24. Bits/(Pixel*Frame)                       : 0.494
  25. Stream size                              : 20.0 GiB (93%)
  26. Title                                    : Love.Letter.1995.JAPANESE.1080p.BluRay.REMUX.AVC.DTS-HD.MA.2.0-FGT
  27. Language                                 : English
  28. Default                                  : No
  29. Forced                                   : No
  30. Color range                              : Limited
  31. Color primaries                          : BT.709
  32. Transfer characteristics                 : BT.709
  33. Matrix coefficients                      : BT.709
  34. Audio
  35. ID                                       : 2
  36. Format                                   : DTS XLL
  37. Format/Info                              : Digital Theater Systems
  38. Commercial name                          : DTS-HD Master Audio
  39. Codec ID                                 : A_DTS
  40. Duration                                 : 1 h 56 min
  41. Bit rate mode                            : Variable
  42. Bit rate                                 : 1 830 kb/s
  43. Channel(s)                               : 2 channels
  44. Channel layout                           : L R
  45. Sampling rate                            : 48.0 kHz
  46. Frame rate                               : 93.750 FPS (512 SPF)
  47. Bit depth                                : 24 bits
  48. Compression mode                         : Lossless
  49. Stream size                              : 1.49 GiB (7%)
  50. Title                                    : Love.Letter.1995.JAPANESE.1080p.BluRay.REMUX.AVC.DTS-HD.MA.2.0-FGT
  51. Language                                 : Japanese
  52. Default                                  : Yes
  53. Forced                                   : No
  54. Text #1
  55. ID                                       : 3
  56. Format                                   : PGS
  57. Muxing mode                              : zlib
  58. Codec ID                                 : S_HDMV/PGS
  59. Codec ID/Info                            : Picture based subtitle format used on BDs/HD-DVDs
  60. Duration                                 : 1 h 50 min
  61. Bit rate                                 : 29.2 kb/s
  62. Count of elements                        : 2774
  63. Stream size                              : 23.1 MiB (0%)
  64. Title                                    : English-PGS
  65. Language                                 : English
  66. Default                                  : Yes
  67. Forced                                   : No
  68. Text #2
  69. ID                                       : 4
  70. Format                                   : PGS
  71. Muxing mode                              : zlib
  72. Codec ID                                 : S_HDMV/PGS
  73. Codec ID/Info                            : Picture based subtitle format used on BDs/HD-DVDs
  74. Duration                                 : 1 h 53 min
  75. Bit rate                                 : 26.2 kb/s
  76. Count of elements                        : 2543
  77. Stream size                              : 21.3 MiB (0%)
  78. Title                                    : Korean-PGS
  79. Language                                 : Korean
  80. Default                                  : No
  81. Forced                                   : No
  82. Text #3
  83. ID                                       : 5
  84. Format                                   : PGS
  85. Muxing mode                              : zlib
  86. Codec ID                                 : S_HDMV/PGS
  87. Codec ID/Info                            : Picture based subtitle format used on BDs/HD-DVDs
  88. Duration                                 : 1 h 50 min
  89. Bit rate                                 : 33.0 kb/s
  90. Count of elements                        : 2457
  91. Stream size                              : 26.1 MiB (0%)
  92. Title                                    : Japanese-PGS
  93. Language                                 : Japanese
  94. Default                                  : No
  95. Forced                                   : No
  96. Menu
  97. 00:00:00.000                             : en:Chapter 01
  98. 00:05:51.851                             : en:Chapter 02
  99. 00:09:10.716                             : en:Chapter 03
  100. 00:13:07.536                             : en:Chapter 04
  101. 00:16:59.560                             : en:Chapter 05
  102. 00:22:34.478                             : en:Chapter 06
  103. 00:26:29.337                             : en:Chapter 07
  104. 00:29:31.603                             : en:Chapter 08
  105. 00:33:28.464                             : en:Chapter 09
  106. 00:39:32.119                             : en:Chapter 10
  107. 00:44:06.602                             : en:Chapter 11
  108. 00:49:02.856                             : en:Chapter 12
  109. 00:52:32.691                             : en:Chapter 13
  110. 00:59:54.716                             : en:Chapter 14
  111. 01:05:31.594                             : en:Chapter 15
  112. 01:11:19.525                             : en:Chapter 16
  113. 01:16:28.667                             : en:Chapter 17
  114. 01:20:13.517                             : en:Chapter 18
  115. 01:26:56.211                             : en:Chapter 19
  116. 01:33:14.213                             : en:Chapter 20
  117. 01:39:36.845                             : en:Chapter 21
  118. 01:44:26.051                             : en:Chapter 22
  119. 01:49:23.348                             : en:Chapter 23
  120. 01:53:49.614                             : en:Chapter 24
复制代码






                                       
                                       

                                       
                                       
                                       




回复

使用道具 举报

懒得打字嘛,点击右侧快捷回复 【右侧内容,后台自定义】
您需要登录后才可以回帖 登录 | 立即加入

本版积分规则

Archiver|小黑屋| 蓝光电影网 |网站地图

Copyright © 2021 Comsenz Inc. Powered by 蓝光电影网

蓝光电影网

本站内容由用户自主分享和转载自互联网,转载目的在于传递更多信息,并不代表本网赞同其观点和对其真实性负责。

如有侵权、违反国家法律政策行为,请联系我们,我们会第一时间及时清除和处理!

举报反馈邮箱:[email protected]

快速回复 返回顶部 返回列表