找回密码

蓝光电影网

查看: 13|回复: 0

[动作] 奇人密码:古罗布之迷 The.Arti.The.Adventure.Begins.2015.CHINESE.1080p.BluRay.x264.DTS-EPiC 8.93GB

[复制链接]
蓝光币
515
发表于 2019-8-8 11:33:48 | 显示全部楼层 |阅读模式
[img]https://img1.doubanio.com/view/photo/l_ratio_poster/public/p2225597371.jpg[img]
◎译  名 奇人密码:古罗布之迷 / The ARTI: Enigma of the Ancinet Lop
◎片  名 奇人密碼:古羅布之謎
◎年  代 2015
◎产  地 台湾
◎类  别 行动 / 动画 / 奇异
◎语  言 汉语普通话 / 闽南语
◎上映日期 2015-02-11(台湾)
◎IMDb评分  6.3/10 from 56 users
◎IMDb链接  http://www.imdb.com/title/tt4839422
◎豆瓣评分 6.6/10 from 529 users
◎豆瓣链接 https://movie.douban.com/subject/26184568/
◎片  长 104分钟
◎导  演 黄强华 Huang Wen Chang
◎编  剧 黄亮勋 Huang Liang Hsun
◎主  演 徐琳智 Linzhi Xu
       马韵婷 Yunting Ma
       萧煌奇 Ricky Hsiao
       黄丽玲 A-Lin
       黄文择 Wen Tze Huang
       王希华 Hsi-Hua Wang
       孙若瑜
       陈进益
       张汶钧
       夏治世
       穆宣名
       刘家渝
       徐健春
       何吴雄
       陈宗岳

◎标  签 布袋戏 | 台湾 | 轰隆布袋戏 | 动画 | 轰隆 | 奇异 | 二点五次元 | 2015
◎简  介  
  轰隆国际多媒体2015年度推出的3D木偶电影。为揭开灭门真相,遗孤张墨、张彤带着父亲遗物「奇人阿西」,依循线索亡命西域,寻觅延续阿西生命的关键能源,野心勃勃的楼兰王子则欲夺取能源以复辟,借机操纵张墨挥军古罗布,一场攸关六合存续的浩劫行将漫天而来。
  1. Video
  2. ID                                       : 1
  3. Format                                   : AVC
  4. Format/Info                              : Advanced Video Codec
  5. Format profile                           : [email protected]
  6. Format settings                          : CABAC / 4 Ref Frames
  7. Format settings, CABAC                   : Yes
  8. Format settings, Reference frames        : 4 frames
  9. Codec ID                                 : V_MPEG4/ISO/AVC
  10. Duration                                 : 1 h 43 min
  11. Bit rate                                 : 10.9 Mb/s
  12. Width                                    : 1 920 pixels
  13. Height                                   : 1 012 pixels
  14. Display aspect ratio                     : 1.897
  15. Frame rate mode                          : Constant
  16. Frame rate                               : 23.976 (24000/1001) FPS
  17. Color space                              : YUV
  18. Chroma subsampling                       : 4:2:0
  19. Bit depth                                : 8 bits
  20. Scan type                                : Progressive
  21. Bits/(Pixel*Frame)                       : 0.233
  22. Stream size                              : 7.84 GiB (88%)
  23. Writing library                          : x264 core 146 r2538 121396c
  24. Encoding settings                        : cabac=1 / ref=4 / deblock=1:-3:-3 / analyse=0x3:0x133 / me=umh / subme=11 / psy=1 / psy_rd=1.00:0.15 / mixed_ref=1 / me_range=32 / chroma_me=1 / trellis=2 / 8x8dct=1 / cqm=0 / deadzone=21,11 / fast_pskip=1 / chroma_qp_offset=-3 / threads=12 / lookahead_threads=2 / sliced_threads=0 / nr=0 / decimate=1 / interlaced=0 / bluray_compat=0 / constrained_intra=0 / bframes=8 / b_pyramid=2 / b_adapt=2 / b_bias=0 / direct=3 / weightb=1 / open_gop=0 / weightp=2 / keyint=230 / keyint_min=22 / scenecut=40 / intra_refresh=0 / rc_lookahead=200 / rc=crf / mbtree=1 / crf=18.0 / qcomp=0.60 / qpmin=0 / qpmax=40 / qpstep=4 / vbv_maxrate=30000 / vbv_bufsize=40000 / crf_max=0.0 / nal_hrd=none / filler=0 / ip_ratio=1.40 / aq=1:1.00
  25. Language                                 : Chinese
  26. Default                                  : Yes
  27. Forced                                   : No
  28. Audio
  29. ID                                       : 2
  30. Format                                   : DTS
  31. Format/Info                              : Digital Theater Systems
  32. Codec ID                                 : A_DTS
  33. Duration                                 : 1 h 43 min
  34. Bit rate mode                            : Constant
  35. Bit rate                                 : 1 509 kb/s
  36. Channel(s)                               : 6 channels
  37. Channel layout                           : C L R Ls Rs LFE
  38. Sampling rate                            : 48.0 kHz
  39. Frame rate                               : 93.750 FPS (512 SPF)
  40. Bit depth                                : 16 bits
  41. Compression mode                         : Lossy
  42. Stream size                              : 1.09 GiB (12%)
  43. Language                                 : Chinese
  44. Default                                  : Yes
  45. Forced                                   : No
  46. Text
  47. ID                                       : 3
  48. Format                                   : UTF-8
  49. Codec ID                                 : S_TEXT/UTF8
  50. Codec ID/Info                            : UTF-8 Plain Text
  51. Duration                                 : 1 h 36 min
  52. Bit rate                                 : 37 b/s
  53. Count of elements                        : 1060
  54. Stream size                              : 26.7 KiB (0%)
  55. Language                                 : English
  56. Default                                  : Yes
  57. Forced                                   : No
  58. Menu
  59. 00:00:00.000                             : en:00:00:00.000
  60. 00:12:04.557                             : en:00:12:04.557
  61. 00:24:33.013                             : en:00:24:33.013
  62. 00:35:00.557                             : en:00:35:00.557
  63. 00:52:13.130                             : en:00:52:13.130
  64. 01:04:17.645                             : en:01:04:17.645
  65. 01:17:40.823                             : en:01:17:40.823
  66. 01:28:08.283                             : en:01:28:08.283
复制代码






                                       
                                       

                                       
                                       
                                       




回复

使用道具 举报

懒得打字嘛,点击右侧快捷回复 【右侧内容,后台自定义】
您需要登录后才可以回帖 登录 | 立即加入

本版积分规则

Archiver|小黑屋| 蓝光电影网 |网站地图

Copyright © 2021 Comsenz Inc. Powered by 蓝光电影网

蓝光电影网

本站内容由用户自主分享和转载自互联网,转载目的在于传递更多信息,并不代表本网赞同其观点和对其真实性负责。

如有侵权、违反国家法律政策行为,请联系我们,我们会第一时间及时清除和处理!

举报反馈邮箱:[email protected]

快速回复 返回顶部 返回列表