找回密码

蓝光电影网

查看: 242|回复: 1

[动作] 龙卷风/龙卷风暴 Twister.1996.REMASTERED.1080p.BluRay.REMUX.AVC.DTS-HD.MA.TrueHD.7.1.Atmos-FGT 34.59GB

[复制链接]
蓝光币
515
发表于 2021-8-20 15:26:00 | 显示全部楼层 |阅读模式


◎译  名 龙卷风/龙卷风暴(港)
◎片  名 Twister
◎年  代 1996
◎产  地 美国
◎类  别 行动 / 冒险 / 灾难
◎语  言 英语
◎上映日期 1996-05-10
◎豆瓣评分 7.3/10 from 27511 users
◎豆瓣链接 https://movie.douban.com/subject/1292454/
◎片  长 113 分钟
◎导  演 扬·德·邦特 Jan de Bont
◎编  剧 迈克尔·克莱顿 Michael Crichton / 安妮-玛丽·马丁 Anne-Marie Martin
◎主  演 海伦·亨特 Helen Hunt
       比尔·帕克斯顿 Bill Paxton
       加利·艾尔维斯 Cary Elwes
       杰米·格尔兹 Jami Gertz
       菲利普·塞默·霍夫曼 Philip Seymour Hoffman
       罗伊丝·史姑娘 Lois Smith
       阿兰·卢克 Alan Ruck
       西恩·瓦兰 Sean Whalen
       斯科特·汤姆森 Scott Thomson
       托德·菲尔德 Todd Field
       乔伊·斯洛特尼克 Joey Slotnick
       杰瑞米·戴维斯 Jeremy Davies
       扎克·格雷尼尔 Zach Grenier
       派特里克·费斯克勒 Patrick Fischler
       尼古拉斯·萨德勒 Nicholas Sadler
       本·韦伯 Ben Weber
       安东尼·拉普 Anthony Rapp
       埃里克·拉雷·哈维 Erik LaRay Harvey
       亚布拉哈姆·本鲁比 Abraham Benrubi
       杰克·布塞 Jake Busey
       拉丝蒂·休默 Rusty Schwimmer
       阿丽夏·维加 Alexa Vega
       达里尔·考克斯 Darryl Cox
       Ben Jackson Ben Jackson
◎标  签 灾难 | 美国 | 美国电影 | 科幻 | 龙卷风 | 灾难片 | 1996 | 电影
◎简  介


  龙卷风的暴戾和奥秘吸引了多量科学家的深入研讨,深入风暴中心是最危险的行为,但亦是摸索龙卷风最有用的方式。乔(海伦·亨特 Helen Hunt饰)和仳离的丈夫比尔(比尔·帕克斯顿 Bill Paxton饰)就是这类“与龙共舞”的科学家,即使他们豪情已经破裂,比尔也已找到新的情人,但出于对龙卷风研讨的痴迷,他们还是决议配合追逐一场俄克拉何马州的飓风,并把新研制成功的探测仪“多萝西”放到龙卷风中心收集数据。
  
  他们驾驶着陈旧的货车,率领着追风队,向最危险的地方进发。同时,另一队装备精巧的人马也朝着这个偏向驶去,由裘纳(加利·艾尔维斯 Cary Elwes饰)领队,在追风行动中和乔激励较劲。
  
  一边是志同道合的乔,一边是害怕惊险生活的新女友,比尔在追风进程中若何重新决定自己的豪情门路?更重要的是,面临气力薄弱的对手,和随时葬身其中的龙卷风,乔和比尔若何实现自己的追风胡想?
◎获奖情况
  第69届奥斯卡金像奖 ?(1997)
  最好视觉结果(提名) 哈比布·扎尔加普尔?/?斯蒂芬·范米尔?/?约翰·弗雷泽?/?亨利·拉伯塔
  最好声响(提名) 格雷格·兰达克?/?凯文·奥康奈尔?/?杰弗里·帕特森?/?史蒂夫·马斯洛
  1. Video
  2. ID                                       : 1
  3. ID in the original source medium         : 4113 (0x1011)
  4. Format                                   : AVC
  5. Format/Info                              : Advanced Video Codec
  6. Format profile                           : [email protected]
  7. Format settings                          : CABAC / 3 Ref Frames
  8. Format settings, CABAC                   : Yes
  9. Format settings, Reference frames        : 3 frames
  10. Codec ID                                 : V_MPEG4/ISO/AVC
  11. Duration                                 : 1 h 52 min
  12. Bit rate mode                            : Variable
  13. Bit rate                                 : 29.0 Mb/s
  14. Width                                    : 1 920 pixels
  15. Height                                   : 1 080 pixels
  16. Display aspect ratio                     : 16:9
  17. Frame rate mode                          : Constant
  18. Frame rate                               : 23.976 (24000/1001/189150) FPS
  19. Color space                              : YUV
  20. Chroma subsampling                       : 4:2:0
  21. Bit depth                                : 8 bits
  22. Scan type                                : Progressive
  23. Bits/(Pixel*Frame)                       : 0.583
  24. Stream size                              : 22.7 GiB (66%)
  25. Writing library                          : x264 core 157 r2935 545de2f
  26. Encoding settings                        : cabac=1 / ref=4 / deblock=1:-2:-2 / analyse=0x3:0x133 / me=tesa / subme=11 / psy=1 / psy_rd=1.00:0.25 / mixed_ref=1 / me_range=24 / chroma_me=1 / trellis=2 / 8x8dct=1 / cqm=0 / deadzone=6,6 / fast_pskip=0 / chroma_qp_offset=-4 / threads=24 / lookahead_threads=2 / sliced_threads=0 / slices=4 / nr=0 / decimate=0 / interlaced=0 / bluray_compat=1 / constrained_intra=0 / bframes=3 / b_pyramid=1 / b_adapt=2 / b_bias=0 / direct=3 / weightb=1 / open_gop=1 / weightp=1 / keyint=24 / keyint_min=1 / scenecut=40 / intra_refresh=0 / rc_lookahead=24 / rc=2pass / mbtree=1 / bitrate=29000 / ratetol=1.0 / qcomp=0.80 / qpmin=0 / qpmax=69 / qpstep=4 / cplxblur=20.0 / qblur=0.5 / vbv_maxrate=29000 / vbv_bufsize=30000 / nal_hrd=vbr / filler=0 / ip_ratio=1.10 / aq=1:0.50
  27. Language                                 : English
  28. Default                                  : No
  29. Forced                                   : No
  30. Color range                              : Limited
  31. Color primaries                          : BT.709
  32. Transfer characteristics                 : BT.709
  33. Matrix coefficients                      : BT.709
  34. Original source medium                   : Blu-ray
  35. Audio #1
  36. ID                                       : 2
  37. ID in the original source medium         : 4353 (0x1101)
  38. Format                                   : MLP FBA 16-ch
  39. Format/Info                              : Meridian Lossless Packing FBA with 16-channel presentation
  40. Commercial name                          : Dolby TrueHD with Dolby Atmos
  41. Codec ID                                 : A_TRUEHD
  42. Duration                                 : 1 h 52 min
  43. Bit rate mode                            : Variable
  44. Bit rate                                 : 3 867 kb/s
  45. Maximum bit rate                         : 6 732 kb/s
  46. Channel(s)                               : 8 channels
  47. Channel layout                           : L R C LFE Ls Rs Lb Rb
  48. Sampling rate                            : 48.0 kHz
  49. Frame rate                               : 1 200.000 FPS (40 SPF)
  50. Bit depth                                : 24 bits
  51. Compression mode                         : Lossless
  52. Delay relative to video                  : 1 s 1 ms
  53. Stream size                              : 3.05 GiB (9%)
  54. Title                                    : TrueHD 7.1 Atmos
  55. Language                                 : English
  56. Default                                  : Yes
  57. Forced                                   : No
  58. Original source medium                   : Blu-ray
  59. Number of dynamic objects                : 13
  60. Bed channel count                        : 1 channel
  61. Bed channel configuration                : LFE
  62. Audio #2
  63. ID                                       : 3
  64. Format                                   : DTS XLL
  65. Format/Info                              : Digital Theater Systems
  66. Commercial name                          : DTS-HD Master Audio
  67. Codec ID                                 : A_DTS
  68. Duration                                 : 1 h 52 min
  69. Bit rate mode                            : Variable
  70. Bit rate                                 : 4 013 kb/s
  71. Channel(s)                               : 8 channels
  72. Channel layout                           : C L R LFE Lb Rb Lss Rss
  73. Sampling rate                            : 48.0 kHz
  74. Frame rate                               : 93.750 FPS (512 SPF)
  75. Bit depth                                : 24 bits
  76. Compression mode                         : Lossless
  77. Stream size                              : 3.17 GiB (9%)
  78. Title                                    : DTS-HD MA 7.1
  79. Language                                 : English
  80. Default                                  : No
  81. Forced                                   : No
  82. Audio #3
  83. ID                                       : 4
  84. ID in the original source medium         : 4353 (0x1101)
  85. Format                                   : AC-3
  86. Format/Info                              : Audio Coding 3
  87. Commercial name                          : Dolby Digital
  88. Format settings                          : Dolby Surround EX
  89. Codec ID                                 : A_AC3
  90. Duration                                 : 1 h 52 min
  91. Bit rate mode                            : Constant
  92. Bit rate                                 : 640 kb/s
  93. Channel(s)                               : 6 channels
  94. Channel layout                           : L R C LFE Ls Rs
  95. Sampling rate                            : 48.0 kHz
  96. Frame rate                               : 31.250 FPS (1536 SPF)
  97. Compression mode                         : Lossy
  98. Delay relative to video                  : 1 s 1 ms
  99. Stream size                              : 517 MiB (1%)
  100. Title                                    : DD 5.1
  101. Language                                 : English
  102. Service kind                             : Complete Main
  103. Default                                  : No
  104. Forced                                   : No
  105. Original source medium                   : Blu-ray
  106. Audio #4
  107. ID                                       : 5
  108. ID in the original source medium         : 4352 (0x1100)
  109. Format                                   : MLP FBA 16-ch
  110. Format/Info                              : Meridian Lossless Packing FBA with 16-channel presentation
  111. Commercial name                          : Dolby TrueHD with Dolby Atmos
  112. Codec ID                                 : A_TRUEHD
  113. Duration                                 : 1 h 52 min
  114. Bit rate mode                            : Variable
  115. Bit rate                                 : 3 961 kb/s
  116. Maximum bit rate                         : 6 453 kb/s
  117. Channel(s)                               : 8 channels
  118. Channel layout                           : L R C LFE Ls Rs Lb Rb
  119. Sampling rate                            : 48.0 kHz
  120. Frame rate                               : 1 200.000 FPS (40 SPF)
  121. Bit depth                                : 24 bits
  122. Compression mode                         : Lossless
  123. Delay relative to video                  : 1 s 1 ms
  124. Stream size                              : 3.12 GiB (9%)
  125. Title                                    : TrueHD 7.1 Atmos
  126. Language                                 : German
  127. Default                                  : No
  128. Forced                                   : No
  129. Original source medium                   : Blu-ray
  130. Number of dynamic objects                : 13
  131. Bed channel count                        : 1 channel
  132. Bed channel configuration                : LFE
  133. Audio #5
  134. ID                                       : 6
  135. ID in the original source medium         : 4352 (0x1100)
  136. Format                                   : AC-3
  137. Format/Info                              : Audio Coding 3
  138. Commercial name                          : Dolby Digital
  139. Format settings                          : Dolby Surround EX
  140. Codec ID                                 : A_AC3
  141. Duration                                 : 1 h 52 min
  142. Bit rate mode                            : Constant
  143. Bit rate                                 : 640 kb/s
  144. Channel(s)                               : 6 channels
  145. Channel layout                           : L R C LFE Ls Rs
  146. Sampling rate                            : 48.0 kHz
  147. Frame rate                               : 31.250 FPS (1536 SPF)
  148. Compression mode                         : Lossy
  149. Delay relative to video                  : 1 s 1 ms
  150. Stream size                              : 517 MiB (1%)
  151. Title                                    : DD 5.1
  152. Language                                 : German
  153. Service kind                             : Complete Main
  154. Default                                  : No
  155. Forced                                   : No
  156. Original source medium                   : Blu-ray
  157. Audio #6
  158. ID                                       : 7
  159. ID in the original source medium         : 4354 (0x1102)
  160. Format                                   : DTS
  161. Format/Info                              : Digital Theater Systems
  162. Codec ID                                 : A_DTS
  163. Duration                                 : 1 h 52 min
  164. Bit rate mode                            : Constant
  165. Bit rate                                 : 768 kb/s
  166. Channel(s)                               : 2 channels
  167. Channel layout                           : Lt Rt
  168. Sampling rate                            : 48.0 kHz
  169. Frame rate                               : 93.750 FPS (512 SPF)
  170. Bit depth                                : 24 bits
  171. Compression mode                         : Lossy
  172. Stream size                              : 620 MiB (2%)
  173. Title                                    : DTS 2.0
  174. Language                                 : German
  175. Default                                  : No
  176. Forced                                   : No
  177. Original source medium                   : Blu-ray
  178. Audio #7
  179. ID                                       : 8
  180. ID in the original source medium         : 4355 (0x1103)
  181. Format                                   : DTS
  182. Format/Info                              : Digital Theater Systems
  183. Codec ID                                 : A_DTS
  184. Duration                                 : 1 h 52 min
  185. Bit rate mode                            : Constant
  186. Bit rate                                 : 768 kb/s
  187. Channel(s)                               : 2 channels
  188. Channel layout                           : Lt Rt
  189. Sampling rate                            : 48.0 kHz
  190. Frame rate                               : 93.750 FPS (512 SPF)
  191. Bit depth                                : 24 bits
  192. Compression mode                         : Lossy
  193. Stream size                              : 620 MiB (2%)
  194. Title                                    : DTS 2.0
  195. Language                                 : English
  196. Default                                  : No
  197. Forced                                   : No
  198. Original source medium                   : Blu-ray
  199. Audio #8
  200. ID                                       : 9
  201. ID in the original source medium         : 4356 (0x1104)
  202. Format                                   : AC-3
  203. Format/Info                              : Audio Coding 3
  204. Commercial name                          : Dolby Digital
  205. Codec ID                                 : A_AC3
  206. Duration                                 : 1 h 52 min
  207. Bit rate mode                            : Constant
  208. Bit rate                                 : 192 kb/s
  209. Channel(s)                               : 2 channels
  210. Channel layout                           : L R
  211. Sampling rate                            : 48.0 kHz
  212. Frame rate                               : 31.250 FPS (1536 SPF)
  213. Compression mode                         : Lossy
  214. Stream size                              : 155 MiB (0%)
  215. Title                                    : DD 2.0
  216. Language                                 : English
  217. Service kind                             : Complete Main
  218. Default                                  : No
  219. Forced                                   : No
  220. Original source medium                   : Blu-ray
  221. Text #1
  222. ID                                       : 10
  223. Format                                   : UTF-8
  224. Codec ID                                 : S_TEXT/UTF8
  225. Codec ID/Info                            : UTF-8 Plain Text
  226. Duration                                 : 1 h 44 min
  227. Bit rate                                 : 60 b/s
  228. Count of elements                        : 1343
  229. Stream size                              : 46.4 KiB (0%)
  230. Title                                    : SRT
  231. Language                                 : English
  232. Default                                  : Yes
  233. Forced                                   : No
  234. Text #2
  235. ID                                       : 11
  236. ID in the original source medium         : 4608 (0x1200)
  237. Format                                   : PGS
  238. Muxing mode                              : zlib
  239. Codec ID                                 : S_HDMV/PGS
  240. Codec ID/Info                            : Picture based subtitle format used on BDs/HD-DVDs
  241. Duration                                 : 1 h 44 min
  242. Bit rate                                 : 35.7 kb/s
  243. Count of elements                        : 2713
  244. Stream size                              : 26.7 MiB (0%)
  245. Language                                 : German
  246. Default                                  : No
  247. Forced                                   : No
  248. Original source medium                   : Blu-ray
  249. Text #3
  250. ID                                       : 12
  251. ID in the original source medium         : 4609 (0x1201)
  252. Format                                   : PGS
  253. Muxing mode                              : zlib
  254. Codec ID                                 : S_HDMV/PGS
  255. Codec ID/Info                            : Picture based subtitle format used on BDs/HD-DVDs
  256. Duration                                 : 1 h 44 min
  257. Bit rate                                 : 36.2 kb/s
  258. Count of elements                        : 2690
  259. Stream size                              : 27.0 MiB (0%)
  260. Language                                 : English
  261. Default                                  : No
  262. Forced                                   : No
  263. Original source medium                   : Blu-ray
  264. Text #4
  265. ID                                       : 13
  266. ID in the original source medium         : 4610 (0x1202)
  267. Format                                   : PGS
  268. Muxing mode                              : zlib
  269. Codec ID                                 : S_HDMV/PGS
  270. Codec ID/Info                            : Picture based subtitle format used on BDs/HD-DVDs
  271. Duration                                 : 1 h 45 min
  272. Bit rate                                 : 38.5 kb/s
  273. Count of elements                        : 2904
  274. Stream size                              : 29.0 MiB (0%)
  275. Language                                 : German
  276. Default                                  : No
  277. Forced                                   : No
  278. Original source medium                   : Blu-ray
  279. Text #5
  280. ID                                       : 14
  281. ID in the original source medium         : 4611 (0x1203)
  282. Format                                   : PGS
  283. Muxing mode                              : zlib
  284. Codec ID                                 : S_HDMV/PGS
  285. Codec ID/Info                            : Picture based subtitle format used on BDs/HD-DVDs
  286. Duration                                 : 1 h 45 min
  287. Bit rate                                 : 39.0 kb/s
  288. Count of elements                        : 2900
  289. Stream size                              : 29.3 MiB (0%)
  290. Language                                 : English
  291. Default                                  : No
  292. Forced                                   : No
  293. Original source medium                   : Blu-ray
  294. Text #6
  295. ID                                       : 15
  296. ID in the original source medium         : 4612 (0x1204)
  297. Format                                   : PGS
  298. Muxing mode                              : zlib
  299. Codec ID                                 : S_HDMV/PGS
  300. Codec ID/Info                            : Picture based subtitle format used on BDs/HD-DVDs
  301. Duration                                 : 1 h 52 min
  302. Bit rate                                 : 61.3 kb/s
  303. Count of elements                        : 3608
  304. Stream size                              : 49.5 MiB (0%)
  305. Title                                    : COMMENTARY
  306. Language                                 : German
  307. Default                                  : No
  308. Forced                                   : No
  309. Original source medium                   : Blu-ray
  310. Text #7
  311. ID                                       : 16
  312. ID in the original source medium         : 4613 (0x1205)
  313. Format                                   : PGS
  314. Muxing mode                              : zlib
  315. Codec ID                                 : S_HDMV/PGS
  316. Codec ID/Info                            : Picture based subtitle format used on BDs/HD-DVDs
  317. Duration                                 : 1 h 52 min
  318. Bit rate                                 : 59.8 kb/s
  319. Count of elements                        : 3724
  320. Stream size                              : 48.2 MiB (0%)
  321. Title                                    : COMMENTARY
  322. Language                                 : English
  323. Default                                  : No
  324. Forced                                   : No
  325. Original source medium                   : Blu-ray
  326. Menu
  327. 00:00:00.000                             : Chapter 01
  328. 00:04:51.249                             : Chapter 02
  329. 00:09:01.374                             : Chapter 03
  330. 00:13:14.877                             : Chapter 04
  331. 00:18:53.257                             : Chapter 05
  332. 00:24:32.512                             : Chapter 06
  333. 00:29:32.520                             : Chapter 07
  334. 00:35:56.028                             : Chapter 08
  335. 00:41:33.782                             : Chapter 09
  336. 00:45:08.080                             : Chapter 10
  337. 00:52:42.159                             : Chapter 11
  338. 00:58:06.858                             : Chapter 12
  339. 01:02:11.728                             : Chapter 13
  340. 01:05:39.393                             : Chapter 14
  341. 01:10:18.297                             : Chapter 15
  342. 01:15:12.049                             : Chapter 16
  343. 01:18:14.523                             : Chapter 17
  344. 01:25:46.516                             : Chapter 18
  345. 01:31:34.780                             : Chapter 19
  346. 01:35:47.950                             : Chapter 20
  347. 01:38:37.286                             : Chapter 21
  348. 01:41:27.498                             : Chapter 22
  349. 01:43:34.917                             : Chapter 23
  350. 01:45:52.554                             : Chapter 24
复制代码






                                       
                                       

                                       
                                       
                                       




回复

使用道具 举报

蓝光币
8
发表于 2021-8-24 19:32:16 | 显示全部楼层

感谢楼主的无私分享!
回复 支持 反对

使用道具 举报

懒得打字嘛,点击右侧快捷回复 【右侧内容,后台自定义】
您需要登录后才可以回帖 登录 | 立即加入

本版积分规则

Archiver|小黑屋| 蓝光电影网 |网站地图

Copyright © 2021 Comsenz Inc. Powered by 蓝光电影网

蓝光电影网

本站内容由用户自主分享和转载自互联网,转载目的在于传递更多信息,并不代表本网赞同其观点和对其真实性负责。

如有侵权、违反国家法律政策行为,请联系我们,我们会第一时间及时清除和处理!

举报反馈邮箱:[email protected]

快速回复 返回顶部 返回列表