找回密码

蓝光电影网

查看: 28|回复: 0

[剧情] 赤足天使/赤脚天使 The.Barefoot.Contessa.1954.1080p.BluRay.REMUX.AVC.DD5.1-FGT 15.73GB

[复制链接]
蓝光币
519
发表于 2019-8-29 18:07:12 | 显示全部楼层 |阅读模式


◎译  名 赤足天使 / 光脚天使 / 光脚女爵 / 赤足女爵
◎片  名 The Barefoot Contessa
◎年  代 1954
◎产  地 意大利 / 美国
◎类  别 剧情 / 恋爱 / 悬疑 / 犯罪
◎语  言 英语 / 西班牙 / 意大利
◎上映日期 1954-09-29
◎IMDb评分  7.0/10 from 8899 users
◎IMDb链接  http://www.imdb.com/title/tt0046754
◎豆瓣评分 7.4/10 from 419 users
◎豆瓣链接 https://movie.douban.com/subject/1303303/
◎片  长 128 分钟
◎导  演 Joseph L. Mankiewicz
◎编  剧 Joseph L. Mankiewicz
◎主  演 Humphrey Bogart
       Ava Gardner
       Edmond O'Brien

◎标  签 美国 | 意大利 | 1950s | 约瑟夫·L·曼凯维奇 | 美国电影 | 1954 | HumphreyBogart | Joseph.L.Mankiewicz
◎简  介  
  Maria Vargas(艾娃·加德纳 Ava Gardner 饰)一个美丽、敏感、渴望恋爱的西班牙女子,本在一家酒吧舞蹈。被美国导演Harry Dawes(亨弗莱·鲍嘉 Humphrey Bogart 饰)挖掘,带到好莱坞,成了万众注视电影明星。但她却与投资Harry电影的老板Kirk Edwards冲突重重,后又和南美洲的富人Bravano纠缠不清。直到她碰见深爱她的阿谁汉子——伯爵Vincenzo,两人终究成婚,但悲剧却没法避免。就如Vincenzo的家属格言一样:该来的,总会来。美人已逝,空留遗憾。
◎获奖情况  
  第27届奥斯卡金像奖(1955)
  最好男配角 艾德蒙·奥布莱恩
  最好故事/编剧(提名) 约瑟夫·L·曼凯维奇
  1. Video
  2. ID                                       : 1
  3. Format                                   : AVC
  4. Format/Info                              : Advanced Video Codec
  5. Format profile                           : [email protected]
  6. Format settings                          : CABAC / 2 Ref Frames
  7. Format settings, CABAC                   : Yes
  8. Format settings, Reference frames        : 2 frames
  9. Format settings, GOP                     : M=1, N=5
  10. Codec ID                                 : V_MPEG4/ISO/AVC
  11. Duration                                 : 2 h 10 min
  12. Bit rate mode                            : Variable
  13. Bit rate                                 : 16.9 Mb/s
  14. Maximum bit rate                         : 35.2 Mb/s
  15. Width                                    : 1 920 pixels
  16. Height                                   : 1 080 pixels
  17. Display aspect ratio                     : 16:9
  18. Frame rate mode                          : Constant
  19. Frame rate                               : 23.976 (24000/1001) FPS
  20. Color space                              : YUV
  21. Chroma subsampling                       : 4:2:0
  22. Bit depth                                : 8 bits
  23. Scan type                                : Progressive
  24. Bits/(Pixel*Frame)                       : 0.340
  25. Stream size                              : 15.4 GiB (98%)
  26. Title                                    : The.Barefoot.Contessa.1954.1080p.BluRay.REMUX.AVC.DD5.1-FGT
  27. Language                                 : English
  28. Default                                  : No
  29. Forced                                   : No
  30. Audio
  31. ID                                       : 2
  32. Format                                   : AC-3
  33. Format/Info                              : Audio Coding 3
  34. Commercial name                          : Dolby Digital
  35. Codec ID                                 : A_AC3
  36. Duration                                 : 2 h 10 min
  37. Bit rate mode                            : Constant
  38. Bit rate                                 : 384 kb/s
  39. Channel(s)                               : 6 channels
  40. Channel layout                           : L R C LFE Ls Rs
  41. Sampling rate                            : 48.0 kHz
  42. Frame rate                               : 31.250 FPS (1536 SPF)
  43. Bit depth                                : 16 bits
  44. Compression mode                         : Lossy
  45. Stream size                              : 358 MiB (2%)
  46. Title                                    : The.Barefoot.Contessa.1954.1080p.BluRay.REMUX.AVC.DD5.1-FGT
  47. Language                                 : English
  48. Service kind                             : Complete Main
  49. Default                                  : Yes
  50. Forced                                   : No
  51. Menu
  52. 00:00:00.000                             : en:Chapter 01
  53. 00:00:27.944                             : en:Chapter 02
  54. 00:23:28.949                             : en:Chapter 03
  55. 00:51:27.751                             : en:Chapter 04
  56. 01:22:13.929                             : en:Chapter 05
  57. 01:42:08.956                             : en:Chapter 06
  58. 02:09:25.716                             : en:Chapter 07
复制代码






                                       
                                       

                                       
                                       
                                       




回复

使用道具 举报

懒得打字嘛,点击右侧快捷回复 【右侧内容,后台自定义】
您需要登录后才可以回帖 登录 | 立即加入

本版积分规则

Archiver|小黑屋| 蓝光电影网 |网站地图

Copyright © 2021 Comsenz Inc. Powered by 蓝光电影网

蓝光电影网

本站内容由用户自主分享和转载自互联网,转载目的在于传递更多信息,并不代表本网赞同其观点和对其真实性负责。

如有侵权、违反国家法律政策行为,请联系我们,我们会第一时间及时清除和处理!

举报反馈邮箱:[email protected]

快速回复 返回顶部 返回列表