找回密码

蓝光电影网

查看: 12|回复: 0

[动作] 龙珠Z剧场版5:最强对最强 Dragon.Ball.Z.Coolers.Revenge.1991.1080p.BluRay.x264-HD4U 4.37GB

[复制链接]
蓝光币
515
发表于 2019-8-8 11:10:00 | 显示全部楼层 |阅读模式
[img]https://img1.doubanio.com/view/photo/l_ratio_poster/public/p2561565832.jpg[img]
◎译  名 龙珠Z戏院版5:最强对最强 / Dragon Ball Z Movie 5: Cooler's Revenge / 龙珠戏院版8
◎片  名 ドラゴンボールZ とびっきりの最強対最強
◎年  代 1991
◎产  地 日本 / 美国
◎类  别 行动 / 科幻 / 动画
◎语  言 日语 / 英语
◎上映日期 1991-07-20(日本)
◎IMDb评分  7.2/10 from 5534 users
◎IMDb链接  http://www.imdb.com/title/tt1125254
◎豆瓣评分 7.6/10 from 1689 users
◎豆瓣链接 https://movie.douban.com/subject/3338150/
◎片  长 Japan:48分钟
◎导  演 Mitsuo Hashimoto
◎编  剧 John Burgmeier / Christopher Neel / 鸟山明 Akira Toriyama
◎主  演 野泽雅子 Masako Nozawa
       古川登志夫 Toshio Furukawa
       田中真弓 Mayumi Tanaka
       宫内幸平 K?hei Miyauchi
       永井一郎 Ichir? Nagai
       中尾隆圣 Ry?sei Nakao
       速水奖 Sh? Hayami
       平野君子 Masato Hirano
       佐藤正治 Masaharu Sat?
       八奈见乘儿 J?ji Yanami

◎标  签 动画 | 日本 | 龙珠 | 戏院版 | 日本动画 | 鸟山明 | 1991 | 动漫
◎简  介  
  那美克星一役,宇宙最大无赖弗利萨(中尾隆圣 配音)及其军团完全毁灭,孙悟空(野泽雅子 配音)也在愤慨的驱使下变身成为超级赛亚人,开创了Z战士的新时代。历经含辛茹苦,他们重返故乡地球。但是战争的生活并未延续多久,新的危机忽然来临。弗利萨的落败,引发了他的哥哥克维拉(中尾隆圣 配音)的留意。这个比弟弟更加邪恶且蕴藏着更大野心的无赖,率领手下逼近地球。那美克星的恩怨仍在延续,烽火烧到了地球。
  为了庇护故乡和亲友,Z战士们再次集结,与新的仇敌展开殊死壮绝的战役。最强对最强,保存之战拉开序幕……
  1. Video
  2. ID                                       : 1
  3. Format                                   : AVC
  4. Format/Info                              : Advanced Video Codec
  5. Format profile                           : [email protected]
  6. Format settings, CABAC                   : Yes
  7. Format settings, ReFrames                : 4 frames
  8. Codec ID                                 : V_MPEG4/ISO/AVC
  9. Duration                                 : 46mn 56s
  10. Bit rate                                 : 12.1 Mbps
  11. Width                                    : 1 920 pixels
  12. Height                                   : 1 080 pixels
  13. Display aspect ratio                     : 16:9
  14. Frame rate mode                          : Constant
  15. Frame rate                               : 23.976 fps
  16. Color space                              : YUV
  17. Chroma subsampling                       : 4:2:0
  18. Bit depth                                : 8 bits
  19. Scan type                                : Progressive
  20. Bits/(Pixel*Frame)                       : 0.243
  21. Stream size                              : 3.87 GiB (88%)
  22. Writing library                          : x264 core 104 r1713 c276662
  23. Encoding settings                        : cabac=1 / ref=4 / deblock=1:0:0 / analyse=0x3:0x133 / me=umh / subme=7 / psy=1 / psy_rd=1.00:0.00 / mixed_ref=1 / me_range=16 / chroma_me=1 / trellis=1 / 8x8dct=1 / cqm=0 / deadzone=21,11 / fast_pskip=0 / chroma_qp_offset=-2 / threads=6 / sliced_threads=0 / nr=0 / decimate=1 / interlaced=0 / constrained_intra=0 / bframes=3 / b_pyramid=2 / b_adapt=1 / b_bias=0 / direct=1 / weightb=1 / open_gop=0 / weightp=2 / keyint=250 / keyint_min=23 / scenecut=40 / intra_refresh=0 / rc_lookahead=40 / rc=2pass / mbtree=1 / bitrate=12058 / ratetol=1.0 / qcomp=0.60 / qpmin=10 / qpmax=51 / qpstep=4 / cplxblur=20.0 / qblur=0.5 / ip_ratio=1.40 / aq=1:1.00
  24. Language                                 : Japanese
  25. Default                                  : No
  26. Forced                                   : No
  27. Audio #1
  28. ID                                       : 2
  29. Format                                   : AC-3
  30. Format/Info                              : Audio Coding 3
  31. Mode extension                           : CM (complete main)
  32. Format settings, Endianness              : Big
  33. Codec ID                                 : A_AC3
  34. Duration                                 : 46mn 56s
  35. Bit rate mode                            : Constant
  36. Bit rate                                 : 640 Kbps
  37. Channel(s)                               : 6 channels
  38. Channel positions                        : Front: L C R, Side: L R, LFE
  39. Sampling rate                            : 48.0 KHz
  40. Frame rate                               : 31.250 fps (1536 spf)
  41. Compression mode                         : Lossy
  42. Stream size                              : 215 MiB (5%)
  43. Language                                 : English
  44. Default                                  : Yes
  45. Forced                                   : No
  46. Audio #2
  47. ID                                       : 3
  48. Format                                   : AC-3
  49. Format/Info                              : Audio Coding 3
  50. Mode extension                           : CM (complete main)
  51. Format settings, Endianness              : Big
  52. Codec ID                                 : A_AC3
  53. Duration                                 : 46mn 56s
  54. Bit rate mode                            : Constant
  55. Bit rate                                 : 640 Kbps
  56. Channel(s)                               : 1 channel
  57. Channel positions                        : Front: C
  58. Sampling rate                            : 48.0 KHz
  59. Frame rate                               : 31.250 fps (1536 spf)
  60. Compression mode                         : Lossy
  61. Stream size                              : 215 MiB (5%)
  62. Language                                 : Japanese
  63. Default                                  : No
  64. Forced                                   : No
  65. Text
  66. ID                                       : 4
  67. Format                                   : UTF-8
  68. Codec ID                                 : S_TEXT/UTF8
  69. Codec ID/Info                            : UTF-8 Plain Text
  70. Language                                 : English
  71. Default                                  : Yes
  72. Forced                                   : No
复制代码









                                       
                                       

                                       
                                       
                                       




回复

使用道具 举报

懒得打字嘛,点击右侧快捷回复 【右侧内容,后台自定义】
您需要登录后才可以回帖 登录 | 立即加入

本版积分规则

Archiver|小黑屋| 蓝光电影网 |网站地图

Copyright © 2021 Comsenz Inc. Powered by 蓝光电影网

蓝光电影网

本站内容由用户自主分享和转载自互联网,转载目的在于传递更多信息,并不代表本网赞同其观点和对其真实性负责。

如有侵权、违反国家法律政策行为,请联系我们,我们会第一时间及时清除和处理!

举报反馈邮箱:[email protected]

快速回复 返回顶部 返回列表