找回密码

蓝光电影网

查看: 140|回复: 1

[动作] 异类 The.Misfits.2021.1080p.BluRay.REMUX.AVC.DTS-HD.MA.5.1-FGT 19.91GB

[复制链接]
蓝光币
515
发表于 2021-8-10 09:24:49 | 显示全部楼层 |阅读模式


◎译  名 异类/Ballistic/偷天侠盗团(台)
◎片  名 The Misfits
◎年  代 2021
◎产  地 美国
◎类  别 行动 / 犯罪 / 冒险
◎语  言 英语
◎上映日期 2021-06-11(美国)
◎豆瓣评分 4.9/10 from 1000 users
◎豆瓣链接 https://movie.douban.com/subject/30458303/
◎片  长 94分钟
◎导  演 雷尼·哈林 Renny Harlin
◎编  剧 罗伯特·亨尼 Robert Henny / 科特·维莫 Kurt Wimmer
◎主  演 皮尔斯·布鲁斯南 Pierce Brosnan
       杰米·钟 Jamie Chung
       蒂姆·罗斯 Tim Roth
       赫敏·科菲尔德 Hermione Corfield
       尼克·卡农 Nick Cannon
       冈萨洛·门内德斯 Gonzalo Menendez
       迈克·安吉洛 Mike Angelo
       拉米·贾博尔 Rami Jaber
◎标  签 犯罪 | 行动 | 皮尔斯·布鲁斯 | 美国 | 2021 | 美国电影 | 杰米·钟 | 惊悚
◎简  介


  皮尔斯·布鲁斯南将出演行动新片[异类](The Misfits,暂译)。本片由雷尼·哈林执导,故事发生在中东,报告了一位犯罪高手在一次严重的黄金偷盗案中被捕的故事。该片将于本月在阿布扎比开机。
  1. Video
  2. ID                                       : 1
  3. ID in the original source medium         : 4113 (0x1011)
  4. Format                                   : AVC
  5. Format/Info                              : Advanced Video Codec
  6. Format profile                           : [email protected]
  7. Format settings                          : CABAC / 2 Ref Frames
  8. Format settings, CABAC                   : Yes
  9. Format settings, Reference frames        : 2 frames
  10. Format settings, GOP                     : M=1, N=10
  11. Codec ID                                 : V_MPEG4/ISO/AVC
  12. Duration                                 : 1 h 34 min
  13. Bit rate mode                            : Variable
  14. Bit rate                                 : 26.2 Mb/s
  15. Width                                    : 1 920 pixels
  16. Height                                   : 1 080 pixels
  17. Display aspect ratio                     : 16:9
  18. Frame rate mode                          : Constant
  19. Frame rate                               : 23.976 (24000/1001/189150) FPS
  20. Color space                              : YUV
  21. Chroma subsampling                       : 4:2:0
  22. Bit depth                                : 8 bits
  23. Scan type                                : Progressive
  24. Bits/(Pixel*Frame)                       : 0.527
  25. Stream size                              : 17.3 GiB (87%)
  26. Language                                 : English
  27. Default                                  : No
  28. Forced                                   : No
  29. Original source medium                   : Blu-ray
  30. Audio
  31. ID                                       : 2
  32. ID in the original source medium         : 4352 (0x1100)
  33. Format                                   : DTS XLL
  34. Format/Info                              : Digital Theater Systems
  35. Commercial name                          : DTS-HD Master Audio
  36. Codec ID                                 : A_DTS
  37. Duration                                 : 1 h 34 min
  38. Bit rate mode                            : Variable
  39. Bit rate                                 : 3 951 kb/s
  40. Channel(s)                               : 6 channels
  41. Channel layout                           : C L R Ls Rs LFE
  42. Sampling rate                            : 48.0 kHz
  43. Frame rate                               : 93.750 FPS (512 SPF)
  44. Bit depth                                : 24 bits
  45. Compression mode                         : Lossless
  46. Stream size                              : 2.60 GiB (13%)
  47. Title                                    : DTS-HD MA 5.1
  48. Language                                 : English
  49. Default                                  : Yes
  50. Forced                                   : No
  51. Original source medium                   : Blu-ray
  52. Text #1
  53. ID                                       : 3
  54. Format                                   : UTF-8
  55. Codec ID                                 : S_TEXT/UTF8
  56. Codec ID/Info                            : UTF-8 Plain Text
  57. Duration                                 : 1 h 26 min
  58. Bit rate                                 : 62 b/s
  59. Count of elements                        : 1137
  60. Stream size                              : 39.8 KiB (0%)
  61. Title                                    : SRT
  62. Language                                 : English
  63. Default                                  : Yes
  64. Forced                                   : No
  65. Text #2
  66. ID                                       : 4
  67. ID in the original source medium         : 4608 (0x1200)
  68. Format                                   : PGS
  69. Muxing mode                              : zlib
  70. Codec ID                                 : S_HDMV/PGS
  71. Codec ID/Info                            : Picture based subtitle format used on BDs/HD-DVDs
  72. Duration                                 : 1 h 26 min
  73. Bit rate                                 : 43.1 kb/s
  74. Count of elements                        : 2286
  75. Stream size                              : 26.7 MiB (0%)
  76. Language                                 : English
  77. Default                                  : No
  78. Forced                                   : No
  79. Original source medium                   : Blu-ray
  80. Text #3
  81. ID                                       : 5
  82. ID in the original source medium         : 4609 (0x1201)
  83. Format                                   : PGS
  84. Muxing mode                              : zlib
  85. Codec ID                                 : S_HDMV/PGS
  86. Codec ID/Info                            : Picture based subtitle format used on BDs/HD-DVDs
  87. Duration                                 : 1 h 26 min
  88. Bit rate                                 : 45.7 kb/s
  89. Count of elements                        : 2472
  90. Stream size                              : 28.4 MiB (0%)
  91. Language                                 : English
  92. Default                                  : No
  93. Forced                                   : No
  94. Original source medium                   : Blu-ray
  95. Text #4
  96. ID                                       : 6
  97. ID in the original source medium         : 4610 (0x1202)
  98. Format                                   : PGS
  99. Muxing mode                              : zlib
  100. Codec ID                                 : S_HDMV/PGS
  101. Codec ID/Info                            : Picture based subtitle format used on BDs/HD-DVDs
  102. Duration                                 : 1 h 33 min
  103. Bit rate                                 : 38.7 kb/s
  104. Count of elements                        : 2328
  105. Stream size                              : 25.7 MiB (0%)
  106. Language                                 : Spanish
  107. Default                                  : No
  108. Forced                                   : No
  109. Original source medium                   : Blu-ray
  110. Menu
  111. 00:00:00.000                             : Chapter 01
  112. 00:07:41.544                             : Chapter 02
  113. 00:14:29.952                             : Chapter 03
  114. 00:24:46.943                             : Chapter 04
  115. 00:35:01.599                             : Chapter 05
  116. 00:46:10.225                             : Chapter 06
  117. 00:55:54.809                             : Chapter 07
  118. 01:05:05.318                             : Chapter 08
  119. 01:13:04.046                             : Chapter 09
  120. 01:23:19.911                             : Chapter 10
  121. 01:27:59.565                             : Chapter 11
复制代码






                                       
                                       

                                       
                                       
                                       




回复

使用道具 举报

蓝光币
7
发表于 2021-10-5 14:54:52 | 显示全部楼层

这东西我收了!谢谢楼主!蓝光电影网真好!
回复 支持 反对

使用道具 举报

懒得打字嘛,点击右侧快捷回复 【右侧内容,后台自定义】
您需要登录后才可以回帖 登录 | 立即加入

本版积分规则

Archiver|小黑屋| 蓝光电影网 |网站地图

Copyright © 2021 Comsenz Inc. Powered by 蓝光电影网

蓝光电影网

本站内容由用户自主分享和转载自互联网,转载目的在于传递更多信息,并不代表本网赞同其观点和对其真实性负责。

如有侵权、违反国家法律政策行为,请联系我们,我们会第一时间及时清除和处理!

举报反馈邮箱:[email protected]

快速回复 返回顶部 返回列表