找回密码

蓝光电影网

查看: 15|回复: 0

[喜剧] 校车司机/老爷巴士八小宝 Bustin.Loose.1981.1080p.BluRay.x264-MiMiC 11.20GB

[复制链接]
蓝光币
519
发表于 2020-11-30 08:41:23 | 显示全部楼层 |阅读模式


◎译  名 校车司机/老爷巴士八小宝
◎片  名 Bustin' Loose
◎年  代 1981
◎产  地 美国
◎类  别 笑剧
◎语  言 英语
◎上映日期 1981
◎IMDb评分  6.1/10 from 2777 users
◎IMDb链接  https://www.imdb.com/title/tt0082121/
◎豆瓣评分 /10 from 0 users
◎豆瓣链接 https://movie.douban.com/subject/5050999/
◎片  长 94 分钟
◎导  演 奥兹·斯科特 Oz Scott / 迈克尔·舒尔茨 Michael Schultz
◎编  剧 洛内·埃尔德三世 Lonne Elder III / 理查德·普赖尔 Richard Pryor / 罗杰·西蒙 Roger L. Simon
◎主  演 理查德·普赖尔 Richard Pryor
       西西莉·泰森 Cicely Tyson
       乔治·科 George Coe
       罗伯特克里斯蒂安 Robert Christian
       Paul Mooney
       加里·高兹曼 Gary Goetzman
       Craig Richards
       Luke Andreas
       Earl Billings
       Vern Taylor
       Morgan Roberts
       比尔·奎因 Bill Quinn
       佩吉·麦卡 Peggy McCay
       罗伊·詹森 Roy Jenson
◎标  签 被轻忽的电影 | ◎1980s
◎简  介


  暂无相关剧情先容
  1. Video
  2. ID                                       : 1
  3. Format                                   : AVC
  4. Format/Info                              : Advanced Video Codec
  5. Format profile                           : [email protected]
  6. Format settings                          : CABAC / 4 Ref Frames
  7. Format settings, CABAC                   : Yes
  8. Format settings, Reference frames        : 4 frames
  9. Codec ID                                 : V_MPEG4/ISO/AVC
  10. Duration                                 : 1 h 32 min
  11. Bit rate                                 : 16.9 Mb/s
  12. Width                                    : 1 920 pixels
  13. Height                                   : 1 040 pixels
  14. Display aspect ratio                     : 1.85:1
  15. Frame rate mode                          : Constant
  16. Frame rate                               : 23.976 (24000/1001/189150) FPS
  17. Color space                              : YUV
  18. Chroma subsampling                       : 4:2:0
  19. Bit depth                                : 8 bits
  20. Scan type                                : Progressive
  21. Bits/(Pixel*Frame)                       : 0.352
  22. Stream size                              : 11.0 GiB (98%)
  23. Writing library                          : x264 core 161 r3027 4121277
  24. Encoding settings                        : cabac=1 / ref=4 / deblock=1:0:0 / analyse=0x3:0x133 / me=umh / subme=9 / psy=1 / psy_rd=1.00:0.00 / mixed_ref=1 / me_range=16 / chroma_me=1 / trellis=2 / 8x8dct=1 / cqm=0 / deadzone=21,11 / fast_pskip=0 / chroma_qp_offset=-2 / threads=18 / lookahead_threads=1 / sliced_threads=0 / nr=0 / decimate=0 / interlaced=0 / bluray_compat=0 / constrained_intra=0 / bframes=3 / b_pyramid=2 / b_adapt=2 / b_bias=0 / direct=3 / weightb=1 / open_gop=0 / weightp=2 / keyint=240 / keyint_min=23 / scenecut=40 / intra_refresh=0 / rc=crf / mbtree=0 / crf=18.5 / qcomp=0.60 / qpmin=0 / qpmax=69 / qpstep=4 / ip_ratio=1.40 / pb_ratio=1.30 / aq=1:1.00
  25. Default                                  : Yes
  26. Forced                                   : No
  27. Color range                              : Limited
  28. Matrix coefficients                      : BT.709

  29. Audio
  30. ID                                       : 2
  31. Format                                   : FLAC
  32. Format/Info                              : Free Lossless Audio Codec
  33. Codec ID                                 : A_FLAC
  34. Duration                                 : 1 h 32 min
  35. Bit rate mode                            : Variable
  36. Bit rate                                 : 357 kb/s
  37. Channel(s)                               : 2 channels
  38. Channel layout                           : L R
  39. Sampling rate                            : 48.0 kHz
  40. Frame rate                               : 10.417 FPS (4608 SPF)
  41. Bit depth                                : 16 bits
  42. Compression mode                         : Lossless
  43. Stream size                              : 237 MiB (2%)
  44. Writing library                          : Lavf58.45.100
  45. Language                                 : English
  46. Default                                  : Yes
  47. Forced                                   : No

  48. Text
  49. ID                                       : 3
  50. Format                                   : PGS
  51. Muxing mode                              : zlib
  52. Codec ID                                 : S_HDMV/PGS
  53. Codec ID/Info                            : Picture based subtitle format used on BDs/HD-DVDs
  54. Duration                                 : 1 h 29 min
  55. Bit rate                                 : 40.9 kb/s
  56. Count of elements                        : 1563
  57. Stream size                              : 26.1 MiB (0%)
  58. Language                                 : English
  59. Default                                  : Yes
  60. Forced                                   : No

  61. Menu
  62. 00:00:00.000                             : en:Chapter 01
  63. 00:09:25.106                             : en:Chapter 02
  64. 00:17:41.811                             : en:Chapter 03
  65. 00:29:52.416                             : en:Chapter 04
  66. 00:42:46.105                             : en:Chapter 05
  67. 00:54:23.135                             : en:Chapter 06
  68. 01:06:36.284                             : en:Chapter 07
  69. 01:21:17.414                             : en:Chapter 08
复制代码




                                       
                                       

                                       
                                       
                                       




回复

使用道具 举报

懒得打字嘛,点击右侧快捷回复 【右侧内容,后台自定义】
您需要登录后才可以回帖 登录 | 立即加入

本版积分规则

Archiver|小黑屋| 蓝光电影网 |网站地图

Copyright © 2021 Comsenz Inc. Powered by 蓝光电影网

蓝光电影网

本站内容由用户自主分享和转载自互联网,转载目的在于传递更多信息,并不代表本网赞同其观点和对其真实性负责。

如有侵权、违反国家法律政策行为,请联系我们,我们会第一时间及时清除和处理!

举报反馈邮箱:[email protected]

快速回复 返回顶部 返回列表