找回密码

蓝光电影网

查看: 19|回复: 0

[其他] 模糊乐队:新世界大厦/模糊乐团:新世界大厦 Blur.New.World.Towers.2015.1080p.BluRay.x264-HANDJOB 8.20GB

[复制链接]
蓝光币
515
发表于 2020-9-20 22:41:38 | 显示全部楼层 |阅读模式


◎译  名 模糊乐队:新天下大厦/模糊乐团:新天下大厦
◎片  名 Blur: New World Towers
◎年  代 2015
◎产  地 英国
◎类  别 记载片 / 音乐
◎语  言 英语
◎上映日期 2015-12-02(英国)
◎IMDb评分  7/10 from 109 users
◎IMDb链接  https://www.imdb.com/title/tt5240110/
◎豆瓣评分 9.5/10 from 1380 users
◎豆瓣链接 https://movie.douban.com/subject/26665851/
◎片  长 93分钟
◎主  演 达蒙·奥尔本 Damon Albarn
       格拉翰姆·考可森 Graham Coxon
       阿历克斯·詹姆斯 Alex James
       戴夫·罗恩特里 Dave Rowntree
◎标  签 记载片 | Blur | 英国 | 音乐 | 摇滚 | brit-pop | Documentary | 2015
◎简  介


  The film charts the iconic British band’s sprawling journey over the last few years – from an unexpected break in Hong Kong which sowed the seeds for their first album as a four piece in 16 years, to a glorious home coming show in London and, finally, an emotional reunion with their Hong Kong audience.
  
  New World Towers cuts between scenes from the band’s impassioned performance at this summer’s Hyde Park show in front of 60,000 fans and the stirring concert in Hong Kong, but also offers a raw, candid glimpse into the interior life of the band as well, with personal documentary footage and band interviews showing just how an opportune recording session unexpectedly gave birth to a new album, while also raising questions about the future of Blur. New World Towers reveals fascinating insights into the group dynamic and especially the relationship between singer Damon Albarn and guitarist Graham Coxon. Ultimately, their enduring friendship prevailed - allowing Coxon to bring [The Magic Whip] to completion nearly 18 months later.
  1. Video
  2. ID                                       : 1
  3. Format                                   : AVC
  4. Format/Info                              : Advanced Video Codec
  5. Format profile                           : [email protected]
  6. Format settings                          : CABAC / 5 Ref Frames
  7. Format settings, CABAC                   : Yes
  8. Format settings, Reference frames        : 5 frames
  9. Codec ID                                 : V_MPEG4/ISO/AVC
  10. Duration                                 : 1 h 33 min
  11. Bit rate                                 : 11.9 Mb/s
  12. Width                                    : 1 920 pixels
  13. Height                                   : 796 pixels
  14. Display aspect ratio                     : 2.40:1
  15. Frame rate mode                          : Constant
  16. Frame rate                               : 23.976 (24000/1001/189150) FPS
  17. Color space                              : YUV
  18. Chroma subsampling                       : 4:2:0
  19. Bit depth                                : 8 bits
  20. Scan type                                : Progressive
  21. Bits/(Pixel*Frame)                       : 0.326
  22. Stream size                              : 7.78 GiB (95%)
  23. Writing library                          : x264 core 157 r2935 545de2f
  24. Encoding settings                        : cabac=1 / ref=5 / deblock=1:-3:-3 / analyse=0x3:0x133 / me=umh / subme=10 / psy=1 / psy_rd=1.00:0.00 / mixed_ref=1 / me_range=32 / chroma_me=1 / trellis=2 / 8x8dct=1 / cqm=0 / deadzone=21,11 / fast_pskip=0 / chroma_qp_offset=-2 / threads=25 / lookahead_threads=6 / sliced_threads=0 / nr=0 / decimate=0 / interlaced=0 / bluray_compat=0 / constrained_intra=0 / bframes=16 / b_pyramid=2 / b_adapt=2 / b_bias=0 / direct=3 / weightb=1 / open_gop=0 / weightp=2 / keyint=240 / keyint_min=24 / scenecut=40 / intra_refresh=0 / rc_lookahead=60 / rc=crf / mbtree=0 / crf=15.8 / qcomp=0.60 / qpmin=0 / qpmax=69 / qpstep=4 / vbv_maxrate=62500 / vbv_bufsize=78125 / crf_max=0.0 / nal_hrd=none / filler=0 / ip_ratio=1.40 / pb_ratio=1.30 / aq=2:1.00
  25. Default                                  : Yes
  26. Forced                                   : No
  27. Color range                              : Limited
  28. Color primaries                          : BT.709
  29. Transfer characteristics                 : BT.709
  30. Matrix coefficients                      : BT.709
  31. Audio
  32. ID                                       : 2
  33. Format                                   : AC-3
  34. Format/Info                              : Audio Coding 3
  35. Commercial name                          : Dolby Digital
  36. Codec ID                                 : A_AC3
  37. Duration                                 : 1 h 33 min
  38. Bit rate mode                            : Constant
  39. Bit rate                                 : 640 kb/s
  40. Channel(s)                               : 6 channels
  41. Channel layout                           : L R C LFE Ls Rs
  42. Sampling rate                            : 48.0 kHz
  43. Frame rate                               : 31.250 FPS (1536 SPF)
  44. Compression mode                         : Lossy
  45. Stream size                              : 428 MiB (5%)
  46. Language                                 : English
  47. Service kind                             : Complete Main
  48. Default                                  : Yes
  49. Forced                                   : No
  50. Text
  51. ID                                       : 3
  52. Format                                   : PGS
  53. Muxing mode                              : zlib
  54. Codec ID                                 : S_HDMV/PGS
  55. Codec ID/Info                            : Picture based subtitle format used on BDs/HD-DVDs
  56. Duration                                 : 1 h 28 min
  57. Bit rate                                 : 20.6 kb/s
  58. Count of elements                        : 1152
  59. Stream size                              : 13.1 MiB (0%)
  60. Language                                 : Japanese
  61. Default                                  : No
  62. Forced                                   : No
  63. Menu
  64. 00:00:00.000                             : en:Chapter 1
  65. 00:11:10.837                             : en:Chapter 2
  66. 00:21:27.703                             : en:Chapter 3
  67. 00:35:54.903                             : en:Chapter 4
  68. 00:48:25.152                             : en:Chapter 5
  69. 01:01:16.006                             : en:Chapter 6
  70. 01:12:29.804                             : en:Chapter 7
  71. 01:24:40.200                             : en:Chapter 8
复制代码





                                       
                                       

                                       
                                       
                                       




回复

使用道具 举报

懒得打字嘛,点击右侧快捷回复 【右侧内容,后台自定义】
您需要登录后才可以回帖 登录 | 立即加入

本版积分规则

Archiver|小黑屋| 蓝光电影网 |网站地图

Copyright © 2021 Comsenz Inc. Powered by 蓝光电影网

蓝光电影网

本站内容由用户自主分享和转载自互联网,转载目的在于传递更多信息,并不代表本网赞同其观点和对其真实性负责。

如有侵权、违反国家法律政策行为,请联系我们,我们会第一时间及时清除和处理!

举报反馈邮箱:[email protected]

快速回复 返回顶部 返回列表