找回密码

蓝光电影网

查看: 19|回复: 0

[剧情] 枪手/黑天鹅 The.Gunfighter.1950.1080p.BluRay.REMUX.AVC.DTS-HD.MA.2.0-FGT 19.75GB

[复制链接]
蓝光币
519
发表于 2019-8-29 18:03:08 | 显示全部楼层 |阅读模式


◎译  名 枪手 / 黑天鹅
◎片  名 The Gunfighter
◎年  代 1950
◎产  地 美国
◎类  别 剧情 / 西部
◎语  言 英语
◎上映日期 1950-06-23
◎IMDb评分  7.7/10 from 8388 users
◎IMDb链接  http://www.imdb.com/title/tt0042531
◎豆瓣评分 8.1/10 from 301 users
◎豆瓣链接 https://movie.douban.com/subject/1296671/
◎片  长 85 分钟
◎导  演 亨利·金 Henry King
◎编  剧 安德尔·迪·托斯 André De Toth / 农纳利·约翰逊 Nunnally Johnson / 威廉·鲍尔斯 William Bowers
◎主  演 格利高里·派克 Gregory Peck
       Helen Westcott
       Millard Mitchell
       简·帕克 Jean Parker
       卡尔·莫尔登 Karl Malden

◎标  签 西部 | 西部片 | 美国 | 美国电影 | 格里高利·派克 | 1950 | 1950s | 格里高利派克
◎简  介  
  故事报告有“第一快枪手”之称的吉米·林戈,意图退隐,却总被一些初生牛犊骚扰,要求与他决战,以求将他击败而一鸣惊人。
◎获奖情况  
  第23届奥斯卡金像奖(1951)
  最好电影故事(提名) 威廉·鲍尔斯 / 安德烈·德·托特
  1. Video
  2. ID                                       : 1
  3. Format                                   : AVC
  4. Format/Info                              : Advanced Video Codec
  5. Format profile                           : [email protected]
  6. Format settings                          : CABAC / 4 Ref Frames
  7. Format settings, CABAC                   : Yes
  8. Format settings, Reference frames        : 4 frames
  9. Codec ID                                 : V_MPEG4/ISO/AVC
  10. Duration                                 : 1 h 24 min
  11. Bit rate mode                            : Variable
  12. Bit rate                                 : 32.8 Mb/s
  13. Maximum bit rate                         : 35.0 Mb/s
  14. Width                                    : 1 920 pixels
  15. Height                                   : 1 080 pixels
  16. Display aspect ratio                     : 16:9
  17. Frame rate mode                          : Constant
  18. Frame rate                               : 23.976 (24000/1001) FPS
  19. Standard                                 : NTSC
  20. Color space                              : YUV
  21. Chroma subsampling                       : 4:2:0
  22. Bit depth                                : 8 bits
  23. Scan type                                : Progressive
  24. Bits/(Pixel*Frame)                       : 0.661
  25. Stream size                              : 19.4 GiB (98%)
  26. Title                                    : The.Gunfighter.1950.1080p.BluRay.REMUX.AVC.DTS HD.MA.2.0-FGT
  27. Language                                 : English
  28. Default                                  : No
  29. Forced                                   : No
  30. Color range                              : Limited
  31. Color primaries                          : BT.709
  32. Transfer characteristics                 : BT.709
  33. Matrix coefficients                      : BT.709
  34. Audio
  35. ID                                       : 2
  36. Format                                   : DTS XLL
  37. Format/Info                              : Digital Theater Systems
  38. Commercial name                          : DTS-HD Master Audio
  39. Codec ID                                 : A_DTS
  40. Duration                                 : 1 h 24 min
  41. Bit rate mode                            : Variable
  42. Bit rate                                 : 584 kb/s
  43. Channel(s)                               : 2 channels
  44. Channel layout                           : L R
  45. Sampling rate                            : 48.0 kHz
  46. Frame rate                               : 93.750 FPS (512 SPF)
  47. Bit depth                                : 16 bits
  48. Compression mode                         : Lossless
  49. Stream size                              : 353 MiB (2%)
  50. Title                                    : The.Gunfighter.1950.1080p.BluRay.REMUX.AVC.DTS HD.MA.2.0-FGT
  51. Language                                 : English
  52. Default                                  : Yes
  53. Forced                                   : No
  54. Text
  55. ID                                       : 3
  56. Format                                   : PGS
  57. Muxing mode                              : zlib
  58. Codec ID                                 : S_HDMV/PGS
  59. Codec ID/Info                            : Picture based subtitle format used on BDs/HD-DVDs
  60. Duration                                 : 1 h 23 min
  61. Bit rate                                 : 26.2 kb/s
  62. Count of elements                        : 2013
  63. Stream size                              : 15.7 MiB (0%)
  64. Title                                    : English-PGS
  65. Language                                 : English
  66. Default                                  : Yes
  67. Forced                                   : No
  68. Menu
  69. 00:00:00.000                             : en:Chapter 01
  70. 00:02:17.178                             : en:Chapter 02
  71. 00:10:04.145                             : en:Chapter 03
  72. 00:14:28.742                             : en:Chapter 04
  73. 00:21:35.794                             : en:Chapter 05
  74. 00:28:17.821                             : en:Chapter 06
  75. 00:35:28.167                             : en:Chapter 07
  76. 00:41:59.850                             : en:Chapter 08
  77. 00:50:53.091                             : en:Chapter 09
  78. 01:00:24.454                             : en:Chapter 10
  79. 01:12:16.999                             : en:Chapter 11
复制代码






                                       
                                       

                                       
                                       
                                       




回复

使用道具 举报

懒得打字嘛,点击右侧快捷回复 【右侧内容,后台自定义】
您需要登录后才可以回帖 登录 | 立即加入

本版积分规则

Archiver|小黑屋| 蓝光电影网 |网站地图

Copyright © 2021 Comsenz Inc. Powered by 蓝光电影网

蓝光电影网

本站内容由用户自主分享和转载自互联网,转载目的在于传递更多信息,并不代表本网赞同其观点和对其真实性负责。

如有侵权、违反国家法律政策行为,请联系我们,我们会第一时间及时清除和处理!

举报反馈邮箱:[email protected]

快速回复 返回顶部 返回列表