找回密码

蓝光电影网

查看: 15|回复: 0

[动作] 龙珠Z剧场版8:燃烧吧!!热战·烈战·超激战 Dragon.Ball.Z.Broly.The.Legendary.Super.Saiyan.1993.REPACK.1080p.BluRay.x264-AERO 4.37GB

[复制链接]
蓝光币
519
发表于 2019-8-8 10:57:35 | 显示全部楼层 |阅读模式
[img]https://img1.doubanio.com/view/photo/l_ratio_poster/public/p2561565915.jpg[img]
◎译  名 龙珠Z戏院版8:熄灭吧!!热战·烈战·超苦战 / Dragon Ball Z - Broly - The Legendary Super Saiyan / 龙珠Z:熄灭吧!热战!
◎片  名 ドラゴンボール Z 劇場版: 燃えつきろ !!熱戦?烈戦?超激戦
◎年  代 1993
◎产  地 日本
◎类  别 行动 / 动画
◎语  言 日语
◎上映日期 1993-03-06(日本)
◎IMDb评分  7.5/10 from 8686 users
◎IMDb链接  http://www.imdb.com/title/tt0142242
◎豆瓣评分 7.2/10 from 1559 users
◎豆瓣链接 https://movie.douban.com/subject/3089298/
◎片  长 72分钟
◎导  演 山内重保 Shigeyasu Yamauchi
◎编  剧 小山高生 Takao Koyama / 鸟山明 Akira Toriyama
◎主  演 野泽雅子 Masako Nozawa
       古川登志夫 Toshio Furukawa
       田中真弓 Mayumi Tanaka
       草尾毅 Takeshi Kusao
       堀川亮 Ry? Horikawa
       鹤广美 Hiromi Tsuru
       宫内幸平 K?hei Miyauchi
       渡边菜生子 Naoko Watanabe
       龙田直树 Naoki Tatsuta
       江森浩子 Hiroko Emori
       川津泰彦 Yasuhiko Kawazu
       神奈延年 Nobutoshi Canna
       佐藤正治 Masaharu Sato
       岛田敏 Bin Shimada
       家弓家正 Iemasa Kayumi
       八奈见乘儿 J?ji Yanami

◎标  签 日本 | 动画 | 龙珠 | 戏院版 | 鸟山明 | 日本动画 | 1993 | 动漫
◎简  介  
  赛亚人余党帕拉格斯带着他的儿子布罗利大举破坏南银河,终极父子二人来临地球,请求贝吉塔即位成为新贝吉塔行星的国王。利令智昏的贝吉塔相信了他的请求,为了建立宇宙最强大的帝国,他随帕拉格斯父子前往新贝吉塔行星。
  对此疑窦丛生的特兰克斯、悟饭等报酬探明真相,随之前往,终极发现帕拉格斯欲借贝吉塔的气力统治宇宙的野心。一场大战在所难免。但是令龙珠战士始料未及的是,表面瘦小脆弱的布罗利体内竟隐藏着极为强大的气力。他所变身的超级赛亚人成为了每一个龙珠战士的噩梦。银河系危在旦夕……
  1. Video
  2. ID                                       : 1
  3. Format                                   : AVC
  4. Format/Info                              : Advanced Video Codec
  5. Format profile                           : [email protected]
  6. Format settings                          : CABAC / 4 Ref Frames
  7. Format settings, CABAC                   : Yes
  8. Format settings, Reference frames        : 4 frames
  9. Muxing mode                              : Header stripping
  10. Codec ID                                 : V_MPEG4/ISO/AVC
  11. Duration                                 : 1 h 11 min
  12. Bit rate                                 : 7 677 kb/s
  13. Width                                    : 1 920 pixels
  14. Height                                   : 1 080 pixels
  15. Display aspect ratio                     : 16:9
  16. Frame rate mode                          : Constant
  17. Frame rate                               : 23.976 (24000/1001) FPS
  18. Color space                              : YUV
  19. Chroma subsampling                       : 4:2:0
  20. Bit depth                                : 8 bits
  21. Scan type                                : Progressive
  22. Bits/(Pixel*Frame)                       : 0.154
  23. Stream size                              : 3.77 GiB (86%)
  24. Writing library                          : x264 core 105 r1724 b02df7b
  25. Encoding settings                        : cabac=1 / ref=4 / deblock=1:0:0 / analyse=0x3:0x133 / me=umh / subme=7 / psy=1 / psy_rd=1.00:0.00 / mixed_ref=1 / me_range=16 / chroma_me=1 / trellis=1 / 8x8dct=1 / cqm=0 / deadzone=21,11 / fast_pskip=0 / chroma_qp_offset=-2 / threads=6 / sliced_threads=0 / nr=0 / decimate=1 / interlaced=0 / constrained_intra=0 / bframes=3 / b_pyramid=2 / b_adapt=1 / b_bias=0 / direct=1 / weightb=1 / open_gop=0 / weightp=2 / keyint=250 / keyint_min=23 / scenecut=40 / intra_refresh=0 / rc_lookahead=40 / rc=2pass / mbtree=1 / bitrate=7677 / ratetol=1.0 / qcomp=0.60 / qpmin=10 / qpmax=51 / qpstep=4 / cplxblur=20.0 / qblur=0.5 / ip_ratio=1.40 / aq=1:1.00
  26. Language                                 : English
  27. Default                                  : Yes
  28. Forced                                   : No
  29. Audio #1
  30. ID                                       : 2
  31. Format                                   : AC-3
  32. Format/Info                              : Audio Coding 3
  33. Commercial name                          : Dolby Digital
  34. Muxing mode                              : Header stripping
  35. Codec ID                                 : A_AC3
  36. Duration                                 : 1 h 11 min
  37. Bit rate mode                            : Constant
  38. Bit rate                                 : 640 kb/s
  39. Channel(s)                               : 6 channels
  40. Channel layout                           : L R C LFE Ls Rs
  41. Sampling rate                            : 48.0 kHz
  42. Frame rate                               : 31.250 FPS (1536 SPF)
  43. Bit depth                                : 16 bits
  44. Compression mode                         : Lossy
  45. Stream size                              : 329 MiB (7%)
  46. Language                                 : English
  47. Service kind                             : Complete Main
  48. Default                                  : No
  49. Forced                                   : No
  50. Audio #2
  51. ID                                       : 3
  52. Format                                   : DTS
  53. Format/Info                              : Digital Theater Systems
  54. Muxing mode                              : Header stripping
  55. Codec ID                                 : A_DTS
  56. Duration                                 : 1 h 11 min
  57. Bit rate mode                            : Constant
  58. Bit rate                                 : 384 kb/s
  59. Channel(s)                               : 2 channels
  60. Channel layout                           : L R
  61. Sampling rate                            : 48.0 kHz
  62. Frame rate                               : 93.750 FPS (512 SPF)
  63. Bit depth                                : 24 bits
  64. Compression mode                         : Lossy
  65. Stream size                              : 198 MiB (4%)
  66. Language                                 : Japanese
  67. Default                                  : Yes
  68. Forced                                   : No
  69. Text
  70. ID                                       : 4
  71. Format                                   : UTF-8
  72. Codec ID                                 : S_TEXT/UTF8
  73. Codec ID/Info                            : UTF-8 Plain Text
  74. Language                                 : English
  75. Default                                  : Yes
  76. Forced                                   : No
复制代码






                                       
                                       

                                       
                                       
                                       




回复

使用道具 举报

懒得打字嘛,点击右侧快捷回复 【右侧内容,后台自定义】
您需要登录后才可以回帖 登录 | 立即加入

本版积分规则

Archiver|小黑屋| 蓝光电影网 |网站地图

Copyright © 2021 Comsenz Inc. Powered by 蓝光电影网

蓝光电影网

本站内容由用户自主分享和转载自互联网,转载目的在于传递更多信息,并不代表本网赞同其观点和对其真实性负责。

如有侵权、违反国家法律政策行为,请联系我们,我们会第一时间及时清除和处理!

举报反馈邮箱:[email protected]

快速回复 返回顶部 返回列表